Welcome Guest ( Log In | Register )

> Disharmonical Tempest - Diatessaron [demo] (1998), Death/Doom Metal
post Aug 28 2012, 18:56:43
Post #1

Serial Uploader
Group Icon
Group: V.I.P
Posts: 32,736
Releases: 31034
From: Lithuania
On Forums: 10 years 2 weeks
Thanks: 355749 time(s)
Lithuania


(IMG:http://metalarea.org/images/audiocovers/2012_Aug/acov_tid180640_thumb.jpg)

*Artist: Disharmonical Tempest
*Album: Diatessaron [demo]
*Year: 1998
*Genre: Death/Doom Metal
*Country: Brazil (IMG:http://metalarea.org/forum/style_images/flags/Brazil.png)
*Format: mp3@CBR320kbps
*Size: 77MB

Tracklist:
01. Scenes Of A Insane 04:04
02. Passage To Serenity 07:13
03. Carnal Silence 05:10
04. Ethereal Fire Burning 05:05
******************************
Total playing time: 21:32

(IMG:http://metalarea.org/images/myspace.png)

Extended info


(IMG:http://metalarea.org/images/spectrogram/2012_Aug/cb71fc42c6d3f6599aa4ec0b7c7171c7.png)
Input File: (01) [Disharmonical Tempest] Scenes Of A Insane.mp3
Channels : 2
Sample Rate : 48000
Precision : 16-bit
Duration : 00:04:04.61 = 11741328 samples ~ 18345.8 CDDA sectors
File Size : 9.79M
Bit Rate : 320k
Sample Encoding: MPEG audio (layer I, II or III)
Comments :
Title=Scenes Of A Insane
Artist=Disharmonical Tempest
Album=Diatessaron
Tracknumber=01
Genre=



Register


Go to the top of the page
  Insert nick Quick quote
+Quote Post
 
Start new topic
Replies (1 - 2)
post Aug 29 2012, 11:06:50
Post #2

ME[ta]LLOMAN
**************
Group: Металариец
Posts: 4,835
Releases: 3
From: Hughes'sRegion\Avdeyevka
On Forums: 12 years 2 months
Thanks: 1732 time(s)
Honduras


ну очень на любителя!)
звук глухой, ужжасный, но музон - чёткий
Go to the top of the page
  Insert nick Quick quote
+Quote Post
post Jun 13 2018, 21:06:11
Post #3

Четыре Литра
****
Group: Металариец
Posts: 359
Releases: 0
From: curitiba, parana
On Forums: 5 years 8 months
Thanks: 304 time(s)
Brazil


Register


Go to the top of the page
  Insert nick Quick quote
+Quote Post

Reply to this topicStart new topic
2 User(s) are reading this topic (2 Guests and 0 Anonymous Users)
0 Members:

 



- Lo-Fi Version Support form
Copyrights and abuse reports form
Time is now: 23rd June 2018 - 09:11:36