Welcome Guest ( Log In | Register )

> Dizziness - On The Rocks (1986), Melodic Heavy Metal (D4)
post Sep 8 2012, 13:21:00
Post #1

Три Литра
***
Group: Завсегдатай
Posts: 277
Releases: 171
On Forums: 10 years 7 months
Thanks: 1735 time(s)
Russian Federation


(IMG:http://metalarea.org/images/audiocovers/2012_Sep/acov_tid181537_thumb.jpg)

*Artist: Dizziness
*Album: On The Rocks
*Year: 1986
*Genre: Melodic Heavy Metal
*Country: Sweden (IMG:http://metalarea.org/forum/style_images/flags/Sweden.png)
*Format: mp3@CBR320kbps
*Size: 85MB

Tracklist:
01. Snowblind 05:02
02. Midnight Lover 05:16
03. Take It Or Leave It 03:39
04. Power 04:16
05. Playing With Fire 04:05
06. Victim Of Love 04:25
07. Every Little Piece Of My Heart 04:56
08. Hard Beating Woman 03:54
09. I Tell You Again 05:32
******************************
Total playing time: 41:05

Extended info


(IMG:http://metalarea.org/images/spectrogram/2012_Sep/a2278f328e11df2f6e70e7a7ac5f137d.png)
Input File: 01 - Snowblind.mp3
Channels : 2
Sample Rate : 44100
Precision : 16-bit
Duration : 00:05:02.16 = 13325256 samples = 22662 CDDA sectors
File Size : 12.1M
Bit Rate : 320k
Sample Encoding: MPEG audio (layer I, II or III)
Comments :
Title=Snowblind
Artist=DIZZINESS
Album=On The Rocks
Tracknumber=1
Year=1986



Register


Go to the top of the page
  Insert nick Quick quote
+Quote Post
 
Start new topic
Replies (1 - 1)
post Sep 8 2012, 22:00:16
Post #2

Маньяк
**********
Group: Металариец
Posts: 1,364
Releases: 5
From: Нью-Васюки
On Forums: 13 years 5 months
Thanks: 392 time(s)
Russian Federation


по спектру тут никак не 320 битрейт
Go to the top of the page
  Insert nick Quick quote
+Quote Post

Reply to this topicStart new topic
1 User(s) are reading this topic (1 Guests and 0 Anonymous Users)
0 Members:

 



- Lo-Fi Version Support form
Copyrights and abuse reports form
Time is now: 20th October 2019 - 17:11:13