Welcome Guest ( Log In | Register )

> Cryptopsy - Cryptopsy (2012), Technical Death Metal
post Sep 11 2012, 07:54:05
Post #1

Serial Uploader
Group Icon
Group: V.I.P
Posts: 31,402
Releases: 29737
From: Lithuania
On Forums: 9 years 8 months
Thanks: 341565 time(s)
Lithuania


(IMG:http://metalarea.org/images/audiocovers/2012_Sep/acov_tid181874_thumb.jpg)

*Artist: Cryptopsy
*Album: Cryptopsy
*Year: 2012
*Genre: Technical Death Metal
*Country: Canada (IMG:http://metalarea.org/forum/style_images/flags/Canada.png)
*Format: mp3@CBR320kbps
*Size: 95MB

Tracklist:
01. Two-Pound Torch 05:03
02. Shag Harbour's Visitors 04:21
03. Red-Skinned Scapegoat 05:57
04. Damned Draft Dodgers 03:57
05. Amputated Enigma 04:02
06. The Golden Square Mile 03:12
07. Ominous 03:46
08. Cleansing The Hosts 04:35
******************************
Total playing time: 34:53

(IMG:http://metalarea.org/images/myspace.png)

Extended info


(IMG:http://metalarea.org/images/spectrogram/2012_Sep/77eef0472256a69336ddcb935a951972.png)
Input File: 02 - Shag Harbour\'s Visitors.mp3
Channels : 2
Sample Rate : 44100
Precision : 16-bit
Duration : 00:04:21.62 = 11537310 samples = 19621.3 CDDA sectors
File Size : 12.5M
Bit Rate : 381k
Sample Encoding: MPEG audio (layer I, II or III)
Comments :
Title=Shag Harbour's Visitors
Artist=Cryptopsy
Album=Cryptopsy
Tracknumber=2
Year=2012
Genre=Death Metal


Register


Вернуться к началу страницы
  Insert nick Quick quote
+Цитировать сообщение
6 Pages V  « < 4 5 6  
Создать новую тему
Replies (150 - 150)
post Nov 28 2017, 06:18:09
Post #151

Absorbence
***********
Group: Металариец
Posts: 1,533
Releases: 215
From: Vastland Abyss of Cthulhu
On Forums: 11 years 3 months
Thanks: 3501 time(s)
Canada


Завтра на концерт надо идти с этими друзьями, а музыку их детально никогда не слушал. Надо устранять недостаток (IMG:style_emoticons/default/metaler.gif) (IMG:style_emoticons/default/metaler.gif) (IMG:style_emoticons/default/metaler.gif)
Вернуться к началу страницы
  Insert nick Quick quote
+Цитировать сообщение

6 Pages V  « < 4 5 6
ОтветитьСоздать новую тему
2 User(s) are reading this topic (2 Guests and 0 Anonymous Users)
0 Members:

 



- Lo-Fi Version Support form
Copyrights and abuse reports form
Time is now: 20th February 2018 - 10:24:15