Welcome Guest ( Log In | Register )

> Dark Infinity - Reborn [ep] (2012), Death Metal
post Sep 24 2012, 19:07:42
Post #1

Два Литра
**
Group: Завсегдатай
Posts: 118
Releases: 15
On Forums: 6 years 2 months
Thanks: 150 time(s)
Russian Federation


(IMG:http://metalarea.org/images/audiocovers/2012_Sep/acov_tid182968_thumb.jpg)

*Artist: Dark Infinity
*Album: Reborn [ep]
*Year: 2012
*Genre: Death Metal
*Country: Russian Federation (IMG:http://metalarea.org/forum/style_images/flags/Russian%20Federation.png)
*Format: mp3@CBR320kbps
*Size: 28MB

Tracklist:
1.Reborn 02:08
2.Bloodgod 01:36
3.Dark In... 01:08
4.Phobia 01:51
5.Sun of the Dead 01:28
6.Souls 01:26
7.Sickness 03:14
******************************
Total playing time: 12:51

Extended info


(IMG:http://metalarea.org/images/spectrogram/2012_Sep/213b91d6d5e0d57a1ac5ea70d6db9e5e.png)
Input File: dark 2.mp3
Channels : 2
Sample Rate : 44100
Precision : 16-bit
Duration : 00:01:36.37 = 4249697 samples = 7227.38 CDDA sectors
File Size : 3.85M
Bit Rate : 320k
Sample Encoding: MPEG audio (layer I, II or III)



Register


Go to the top of the page
  Insert nick Quick quote
+Quote Post
 
Start new topic
Replies (1 - 1)
post Aug 2 2018, 23:28:53
Post #2

Маньяк
**********
Group: Металариец
Posts: 1,332
Releases: 0
On Forums: 2 years 1 month
Thanks: 52 time(s)
United Kingdom


Please can you re-up (IMG:style_emoticons/default/pray.gif)
Go to the top of the page
  Insert nick Quick quote
+Quote Post

Reply to this topicStart new topic
2 User(s) are reading this topic (2 Guests and 0 Anonymous Users)
0 Members:

 



- Lo-Fi Version Support form
Copyrights and abuse reports form
Time is now: 21st August 2018 - 22:44:30