Welcome Guest ( Log In | Register )

> Revocation - Teratogenesis [ep] (2012), Technical Death/Thrash Metal
post Sep 25 2012, 18:57:50
Post #1

Аннигилятор пивА
Group Icon
Group: V.I.P
Posts: 52,360
Releases: 16550
From: Koenigsberg - TILZIT
On Forums: 14 years 1 month
Thanks: 365582 time(s)
Russian Federation


(IMG:http://metalarea.org/images/audiocovers/2012_Sep/acov_tid183064_thumb.jpg)

*Artist: Revocation
*Album: Teratogenesis [ep]
*Year: 2012
*Genre: Technical Death/Thrash Metal
*Country: United States (IMG:http://metalarea.org/forum/style_images/flags/United%20States.png)
*Format: mp3@CBR320kbps
*Size: 55MB

Tracklist:
1. The Grip Tightens 04:10
2. Spurn The Outstreched Hand 04:07
3. Maniacally Unleashed 03:41
4. Teratogenesis 04:06
5. Bound By Desire 05:34
******************************
Total playing time: 21:38

(IMG:http://metalarea.org/images/myspace.png)

Extended info

Круто, че. Открывашка, хитовый классический трэш/ дэт, вторая тема скорее по прог дэту, ну и дальше технодэтовая секция высшего класса с проговыми же моментами).
David Davidson - Guitars / Vocals(ex-Cormid, ex-Cryptic Warning, Hot On The Heels)
Dan Gargiulo - Guitars / Vocals (Artificial Brain, ex-Cyanide Breed)
Brett Bamberger - Bass / Vocals (ex-The Binary Code (live) )
Phil Dubois-Coyne - Drums (ex-Random Acts of Violence, ex-Cormid, ex-Cryptic Warning, Hot On The Heels, ex-Ravage)

(IMG:http://metalarea.org/images/spectrogram/2012_Sep/6b8e615770b5e06f6ba8a50f96a6732c.png)
Input File: 03. Maniacally Unleashed.mp3
Channels : 2
Sample Rate : 44100
Precision : 16-bit
Duration : 00:03:41.47 = 9766739 samples = 16610.1 CDDA sectors
File Size : 10.1M
Bit Rate : 364k
Sample Encoding: MPEG audio (layer I, II or III)
Comments :
Title=Maniacally Unleashed
Artist=Revocation
Album=Teratogenesis (EP)
Tracknumber=3
Year=2012
Genre=Technical Death | Thrash Meal


Register


Go to the top of the page
  Insert nick Quick quote
+Quote Post
2 Pages V  < 1 2  
Start new topic
Replies (30 - 30)
post Jun 30 2020, 14:05:04
Post #31

Добрый
**************
Group: Металариец
Posts: 4,001
Releases: 0
On Forums: 2 years 1 week
Thanks: 6803 time(s)
Russian Federation


50 mb/320 kbps
Register


Thanks:
(1) Lukittaz,
Go to the top of the page
  Insert nick Quick quote
+Quote Post

2 Pages V  < 1 2
Reply to this topicStart new topic
1 User(s) are reading this topic (1 Guests and 0 Anonymous Users)
0 Members:

 



- Lo-Fi Version Support form
Copyrights and abuse reports form
Time is now: 9th July 2020 - 00:09:54