Welcome Guest ( Log In | Register )

> Evil-Lÿn - The Night Of Delusions [ep] (2012), Heavy Metal
post Sep 28 2012, 01:52:16
Post #1

Serial Uploader
Group Icon
Group: V.I.P
Posts: 37,208
Releases: 35391
From: Lithuania
On Forums: 12 years 1 month
Thanks: 421298 time(s)
Lithuania


(IMG:http://metalarea.org/images/audiocovers/2012_Sep/acov_tid183264_thumb.jpg)

*Artist: Evil-Lÿn
*Album: The Night Of Delusions [ep]
*Year: 2012
*Genre: Heavy Metal
*Country: Finland (IMG:http://metalarea.org/forum/style_images/flags/Finland.png)
*Format: mp3@CBR320kbps
*Size: 51MB

Tracklist:
01. The Four Horsemen 04:33
02. The Night Of Delusions 03:37
03. Last Of My Kind 05:33
04. Crossroads 04:20
05. Silver Bullets 04:42
******************************
Total playing time: 22:45

(IMG:http://metalarea.org/images/myspace.png)

Extended info


(IMG:http://metalarea.org/images/spectrogram/2012_Sep/fa1bac6ec557778f43c32b65bf693901.png)
Input File: 04 - Crossroads.mp3
Channels : 2
Sample Rate : 44100
Precision : 16-bit
Duration : 00:04:20.86 = 11503926 samples = 19564.5 CDDA sectors
File Size : 10.4M
Bit Rate : 320k
Sample Encoding: MPEG audio (layer I, II or III)
Comments :
Title=Crossroads
Artist=Evil-Lyn
Album=The Night of Delusions
Tracknumber=04
Year=2012
Genre=Heavy



Register


Go to the top of the page
  Insert nick Quick quote
+Quote Post
 
Start new topic
Replies (1 - 1)
post Jun 30 2020, 06:07:55
Post #2

Добрый
**************
Group: Металариец
Posts: 4,002
Releases: 0
On Forums: 2 years 1 week
Thanks: 6810 time(s)
Russian Federation


51 mb/320 kbps
Register


Thanks:
Go to the top of the page
  Insert nick Quick quote
+Quote Post

Reply to this topicStart new topic
2 User(s) are reading this topic (2 Guests and 0 Anonymous Users)
0 Members:

 



- Lo-Fi Version Support form
Copyrights and abuse reports form
Time is now: 9th July 2020 - 08:37:08