Welcome Guest ( Log In | Register )

> И неформату есть предел.

Рэп/хип-хоп/шансон/поп удаляются. Для них есть свои порталы.

> Demonologists & Gnaw Their Tongues - Demonologists/Gnaw Their Tongues [split] (2012), Death Industrial/Harsh Noise | Dark Ambient/Noise
post Oct 8 2012, 16:05:40
Post #1


*****
Group: Металариец
Posts: 481
Releases: 16
On Forums: 10 years 3 months
Thanks: 694 time(s)
Unknown


(IMG:http://metalarea.org/images/audiocovers/2012_Oct/acov_tid184080_thumb.jpg)

*Artist: Demonologists & Gnaw Their Tongues
*Album: Demonologists/Gnaw Their Tongues [split]
*Year: 2012
*Genre: Death Industrial/Harsh Noise | Dark Ambient/Noise
*Country: United States (IMG:http://metalarea.org/forum/style_images/flags/United%20States.png) | Netherlands (IMG:http://metalarea.org/forum/style_images/flags/Netherlands.png)
*Format: mp3@CBR320kbps
*Size: 78MB

Tracklist:
Demonologists
1.Midnight 2:23
2.Tunneling Through a Prison of Emptiness 4:14
3.Vats of Blood 4:59
4.Flesh Melting From Bone 5:48
Gnaw Their Tongues
5.The Acolyte Procession 9:30
6.Angels Whisper of Pillage and Rape 10:09
******************************
Total playing time: 37:03

Extended info


(IMG:http://metalarea.org/images/spectrogram/2012_Oct/7550cc2e5499bc94f4baf9826207e469.png)
Input File: 01 - Midnight.mp3
Channels : 2
Sample Rate : 44100
Precision : 16-bit
Duration : 00:02:23.99 = 6349783 samples = 10799 CDDA sectors
File Size : 5.80M
Bit Rate : 323k
Sample Encoding: MPEG audio (layer I, II or III)
Comments :
Title=Midnight
Artist=Demonologists
Album=Split with Gnaw Their Tongues
Tracknumber=1
Year=2012
Genre=Death Industrial/Harsh Noise


Register


Go to the top of the page
  Insert nick Quick quote
+Quote Post
 
Start new topic
Replies (1 - 4)
post Oct 8 2012, 19:23:25
Post #2

Маньяк
**********
Group: Металариец
Posts: 1,018
Releases: 373
On Forums: 9 years 1 day
Thanks: 8505 time(s)
Eritrea


Gnaw Their Tongues at their very best, as dark and weird as ever!!! (IMG:style_emoticons/default/9.gif)
Go to the top of the page
  Insert nick Quick quote
+Quote Post
post Oct 10 2012, 08:38:02
Post #3

Detective Godzilla
Group Icon
Group: Moderation team
Posts: 3,128
Releases: 259
On Forums: 8 years 9 months
Thanks: 9073 time(s)
Russian Federation


Gnaw Their Tongues что, наконец-то решили не играть больше митол? Правильное решение, в их случае.
Go to the top of the page
  Insert nick Quick quote
+Quote Post
Kub
post Oct 7 2013, 21:19:44
Post #4

Guests team






ЦИТАТА(Daale @ 10th October 2012 - 11:38:02) *
Правильное решение, в их случае.

неправильная мысль, в твоём случае.
Go to the top of the page
  Insert nick Quick quote
+Quote Post
post Apr 8 2018, 14:26:22
Post #5

Литр
*
Group: Подсевший
Posts: 87
Releases: 0
On Forums: 1 year 10 months
Thanks: 18 time(s)
Unknown


Thanks.
Go to the top of the page
  Insert nick Quick quote
+Quote Post

Reply to this topicStart new topic
2 User(s) are reading this topic (2 Guests and 0 Anonymous Users)
0 Members:

 



- Lo-Fi Version Support form
Copyrights and abuse reports form
Time is now: 20th November 2019 - 15:07:09