Welcome Guest ( Log In | Register )

> Kabal - Chronicles [demo] (2011), Death Metal
post Oct 8 2012, 18:41:33
Post #1

Два Литра
**
Group: Завсегдатай
Posts: 141
Releases: 90
On Forums: 10 years 2 months
Thanks: 1515 time(s)
Unknown


(IMG:http://metalarea.org/images/audiocovers/2012_Oct/acov_tid184096_thumb.jpg)

*Artist: Kabal
*Album: Chronicles [demo]
*Year: 2011
*Genre: Death Metal
*Country: Spain (IMG:http://metalarea.org/forum/style_images/flags/Spain.png)
*Format: mp3@CBR320kbps
*Size: 51MB

Tracklist:
1. Welcome to... 00:55
2. ...Paradise... 03:19
3. Undead 05:33
4. Red On Ice 05:10
5. No Escape 03:57
6. Clandestine Sex 05:44
******************************
Total playing time: 24:38

Extended info


(IMG:http://metalarea.org/images/spectrogram/2012_Oct/762c4285310939ea2aa66daa86737ea5.png)
Input File: Kabal - 01 - Welcome to....mp3
Channels : 2
Sample Rate : 44100
Precision : 16-bit
Duration : 00:00:55.54 = 2449138 samples = 4165.2 CDDA sectors
File Size : 1.74M
Bit Rate : 251k
Sample Encoding: MPEG audio (layer I, II or III)
Comments :
Title=Welcome to...
Artist=Kabal
Album=Chronicles
Tracknumber=1/6
Year=2011
Genre=Death Metal



Register


Go to the top of the page
  Insert nick Quick quote
+Quote Post
 
Start new topic
Replies (1 - 1)
post May 5 2013, 08:56:15
Post #2

Четыре Литра
****
Group: Металариец
Posts: 309
Releases: 0
On Forums: 12 years 5 months
Thanks: 7 time(s)
Uruguay


Thank U


Thanks:
(1) AskeFjell,
Go to the top of the page
  Insert nick Quick quote
+Quote Post

Reply to this topicStart new topic
2 User(s) are reading this topic (2 Guests and 0 Anonymous Users)
0 Members:

 



- Lo-Fi Version Support form
Copyrights and abuse reports form
Time is now: 18th January 2020 - 09:53:25