Welcome Guest ( Log In | Register )

> Lacrimae - The Lvciferian Manifesto [ep] (2012), Black Metal (D5)
post Oct 10 2012, 09:44:15
Post #1

El Kulto, la Bestia y la Muerte
*********
Group: Металариец
Posts: 940
Releases: 120
From: Cursed Land
On Forums: 9 years 3 weeks
Thanks: 2814 time(s)
Unknown


(IMG:http://metalarea.org/images/audiocovers/2012_Oct/acov_tid184225_thumb.jpg)

*Artist: Lacrimae
*Album: The Lvciferian Manifesto [ep]
*Year: 2012
*Genre: Black Metal
*Country: Mexico (IMG:http://metalarea.org/forum/style_images/flags/Mexico.png)
*Format: mp3@CBR320kbps
*Size: 55MB

Tracklist:
1. Lvciferian Manifesto 07:41
2. Ad Bellvm 08:53
3. Commvnion of Plagves 06:14
******************************
Total playing time: 22:48

Extended info


(IMG:http://metalarea.org/images/spectrogram/2012_Oct/ba68290995a6925c962da5b9405d7a75.png)
Input File: Lacrimae - The Lvciferian Manifesto EP - 03 Commvnion of Plagves.mp3
Channels : 2
Sample Rate : 44100
Precision : 16-bit
Duration : 00:06:15.05 = 16539661 samples = 28128.7 CDDA sectors
File Size : 15.1M
Bit Rate : 321k
Sample Encoding: MPEG audio (layer I, II or III)
Comments :
Title=Commvnion of Plagves
Artist=Lacrimae
Album=The Lvciferian Manifesto EP
Tracknumber=3
Year=2012



Register


Go to the top of the page
  Insert nick Quick quote
+Quote Post
 
Start new topic
Replies (1 - 2)
post Oct 26 2012, 18:53:56
Post #2

Маньяк
**********
Group: Металариец
Posts: 1,332
Releases: 338
From: Масква
On Forums: 14 years 3 days
Thanks: 3548 time(s)
Russian Federation


То ли состав сменился, то ли вкусы музыкантов деградировали, но альбом 10-летней давности звучит интереснее.
Go to the top of the page
  Insert nick Quick quote
+Quote Post
post Aug 18 2019, 15:16:46
Post #3

Маньяк
**********
Group: Металариец
Posts: 1,405
Releases: 1
From: ecuador
On Forums: 11 years 2 months
Thanks: 638 time(s)
Ecuador


Register


Thanks:
Go to the top of the page
  Insert nick Quick quote
+Quote Post

Reply to this topicStart new topic
1 User(s) are reading this topic (1 Guests and 0 Anonymous Users)
0 Members:

 



- Lo-Fi Version Support form
Copyrights and abuse reports form
Time is now: 19th October 2019 - 01:24:28