Welcome Guest ( Log In | Register )

> И неформату есть предел.

Рэп/хип-хоп/шансон/поп удаляются. Для них есть свои порталы.

 
Reply to this topicStart new topic
> Seirom - Forest [ep] (2011), Ambient
post Oct 12 2012, 06:35:53
Post #1


*****
Group: Металариец
Posts: 481
Releases: 16
On Forums: 10 years 3 months
Thanks: 694 time(s)
Unknown


(IMG:http://metalarea.org/images/audiocovers/2012_Oct/acov_tid184404_thumb.jpg)

*Artist: Seirom
*Album: Forest [ep]
*Year: 2011
*Genre: Ambient
*Country: Netherlands (IMG:http://metalarea.org/forum/style_images/flags/Netherlands.png)
*Format: mp3@CBR320kbps
*Size: 50MB

Tracklist:
1.First Snow 6:46
2.Soil 8:06
3.Morning 4:59
******************************
Total playing time: 19:51

Extended info


(IMG:http://metalarea.org/images/spectrogram/2012_Oct/fc5f390b7bfdc8ee47747a18b52f320c.png)
Input File: 01 First Snow.mp3
Channels : 2
Sample Rate : 44100
Precision : 16-bit
Duration : 00:06:46.87 = 17942923 samples = 30515.2 CDDA sectors
File Size : 17.8M
Bit Rate : 350k
Sample Encoding: MPEG audio (layer I, II or III)
Comments :
Title=First Snow
Artist=Seirom
Album=Forest
Tracknumber=1
Year=2011
Genre=Ambient



Register


Go to the top of the page
  Insert nick Quick quote
+Quote Post

Reply to this topicStart new topic
2 User(s) are reading this topic (2 Guests and 0 Anonymous Users)
0 Members:

 



- Lo-Fi Version Support form
Copyrights and abuse reports form
Time is now: 20th November 2019 - 08:21:05