Welcome Guest ( Log In | Register )

> И неформату есть предел.

Рэп/хип-хоп/шансон/поп удаляются. Для них есть свои порталы.

> Stigmata - Конвейер Снов (2004), Alternative
post Oct 12 2012, 14:55:00
Post #1

BlaSk MetaliK
**************
Group: Металариец
Posts: 2,026
Releases: 307
From: Ա-շիրիմ
On Forums: 11 years 2 months
Thanks: 5652 time(s)
Armenia


(IMG:http://metalarea.org/images/audiocovers/2012_Oct/acov_tid184444_thumb.jpg)

*Artist: Stigmata
*Album: Конвейер Снов
*Year: 2004
*Genre: Alternative
*Country: Russian Federation (IMG:http://metalarea.org/forum/style_images/flags/Russian%20Federation.png)
*Format: mp3@CBR320kbps
*Size: 104MB

Tracklist:
01. Жить С Нуля
02. Желчь
03. Лети
04. Парадокс
05. Как Ты
06. Не С Тобой
07. Стереострах
08. Стеклянная Любовь
09. Стигмата
10. Куклы
******************************
Total playing time: 46:27

Extended info
Default
00:00:46:27 / 106.34 MB

(IMG:http://metalarea.org/images/spectrogram/2012_Oct/325ff37d5bdacb60f5018aa2041142c9.png)
Input File: 03. лети.mp3
Channels : 2
Sample Rate : 44100
Precision : 16-bit
Duration : 00:04:35.54 = 12151402 samples = 20665.6 CDDA sectors
File Size : 11.0M
Bit Rate : 320k
Sample Encoding: MPEG audio (layer I, II or III)
Comments :
Title=лети
Artist=Stigmata
Album=[конвейер снов]
Tracknumber=03/10
Year=2004
Genre=Metalcore


Register


Thanks:
Go to the top of the page
  Insert nick Quick quote
+Quote Post
 
Start new topic
Replies (1 - 5)
post Sep 9 2014, 17:05:08
Post #2

Три Литра
***
Group: Завсегдатай
Posts: 287
Releases: 0
On Forums: 7 years 4 months
Thanks: 8 time(s)
Ukraine


reap please
Go to the top of the page
  Insert nick Quick quote
+Quote Post
post Sep 9 2014, 18:02:32
Post #3

Ледоруб
**************
Group: Металариец
Posts: 26,609
Releases: 0
From: Санкт-Петербург
On Forums: 11 years 1 week
Thanks: 9408 time(s)
Russian Federation


Да, перезалейте. Глянем, что у них было тогда.
Go to the top of the page
  Insert nick Quick quote
+Quote Post
post Sep 17 2014, 09:38:39
Post #4

BlaSk MetaliK
**************
Group: Металариец
Posts: 2,026
Releases: 307
From: Ա-շիրիմ
On Forums: 11 years 2 months
Thanks: 5652 time(s)
Armenia


not mine upload


Register
Go to the top of the page
  Insert nick Quick quote
+Quote Post
post Sep 17 2014, 10:37:31
Post #5

Чёткий пацан из Автово...
Group Icon
Group: V.I.P
Posts: 9,080
Releases: 35
From: Город над вольной Невой...
On Forums: 14 years 3 months
Thanks: 4488 time(s)
Russian Federation


ЦИТАТА(6666666 @ 9th September 2014 - 21:02:32) *
Да, перезалейте. Глянем, что у них было тогда.

Как по мне - альбом очень "так себе")) мягко говоря.
Go to the top of the page
  Insert nick Quick quote
+Quote Post
post Sep 17 2014, 11:10:16
Post #6

И Ван Дамм По Делам Вашим!
**************
Group: Металариец
Posts: 19,464
Releases: 26
On Forums: 12 years 2 months
Thanks: 10859 time(s)
Honduras


ЦИТАТА(Bloodn Lord @ Sep 17 2014, 12:37:31) *
Как по мне - альбом очень "так себе")) мягко говоря.

Как по мне,творчество данной формации хорошо характеризует одно немецкое слово -дермищь! (IMG:style_emoticons/default/1488.gif)
Go to the top of the page
  Insert nick Quick quote
+Quote Post

Reply to this topicStart new topic
1 User(s) are reading this topic (1 Guests and 0 Anonymous Users)
0 Members:

 



- Lo-Fi Version Support form
Copyrights and abuse reports form
Time is now: 21st September 2020 - 07:06:59