Welcome Guest ( Log In | Register )

> И неформату есть предел.

Рэп/хип-хоп/шансон/поп удаляются. Для них есть свои порталы.

> Dolch - Tiefes Firmament [demo] (1996), Dark Ambient/Dungeon Synth
post Oct 15 2012, 06:56:34
Post #1

Маньяк
**********
Group: Металариец
Posts: 1,112
Releases: 437
From: Finland
On Forums: 11 years 6 months
Thanks: 9435 time(s)
Finland


(IMG:http://metalarea.org/images/audiocovers/2012_Oct/acov_tid184687_thumb.jpg)

*Artist: Dolch
*Album: Tiefes Firmament [demo]
*Year: 1996
*Genre: Dark Ambient/Dungeon Synth
*Country: Germany (IMG:http://metalarea.org/forum/style_images/flags/Germany.png)
*Format: mp3@CBR320kbps
*Size: 114MB

Tracklist:
1. Re-Inkarnation 03:58
2. Dunkelheit 05:06
3. Der Astrale Schein 10:55
4. Majestätisch 04:48
5. Ritual 13:32
******************************
Total playing time: 38:19

Extended info


(IMG:http://metalarea.org/images/spectrogram/2012_Oct/977e77ab50bd0ad470cbba32016615df.png)
Input File: 04. Majestätisch.mp3
Channels : 2
Sample Rate : 44100
Precision : 16-bit
Duration : 00:04:54.59 = 12991199 samples = 22093.9 CDDA sectors
File Size : 16.4M
Bit Rate : 444k
Sample Encoding: MPEG audio (layer I, II or III)
Comments :
Title=Majestätisch
Artist=Dolch
Album=Tiefes Firmament
Tracknumber=4
Year=1996
Genre=Dungeon Synth



Register


Go to the top of the page
  Insert nick Quick quote
+Quote Post
 
Start new topic
Replies (1 - 3)
post Dec 4 2012, 05:48:16
Post #2

Маньяк
**********
Group: Металариец
Posts: 1,112
Releases: 437
From: Finland
On Forums: 11 years 6 months
Thanks: 9435 time(s)
Finland


Here's a mirror:

Register


Thanks:
Go to the top of the page
  Insert nick Quick quote
+Quote Post
post Jun 3 2020, 01:21:41
Post #3

Два Литра
**
Group: Завсегдатай
Posts: 103
Releases: 0
On Forums: 1 year 5 months
Thanks: 48 time(s)
Russian Federation


Реаплоуд кто-нибудь?
Go to the top of the page
  Insert nick Quick quote
+Quote Post
post Jun 3 2020, 06:55:05
Post #4

Добрый
**************
Group: Металариец
Posts: 4,006
Releases: 0
On Forums: 2 years 1 week
Thanks: 6833 time(s)
Russian Federation


91 mb/320 kbps
Register


Thanks:
Go to the top of the page
  Insert nick Quick quote
+Quote Post

Reply to this topicStart new topic
2 User(s) are reading this topic (2 Guests and 0 Anonymous Users)
0 Members:

 



- Lo-Fi Version Support form
Copyrights and abuse reports form
Time is now: 10th July 2020 - 10:17:46