Welcome Guest ( Log In | Register )

> Infernal Necromancy - 2001-2002 [best of/compilation] (2011), Black Metal
post Oct 15 2012, 11:58:38
Post #1

Serial Uploader
Group Icon
Group: V.I.P
Posts: 32,720
Releases: 31010
From: Lithuania
On Forums: 10 years 1 week
Thanks: 355642 time(s)
Lithuania


(IMG:http://metalarea.org/images/audiocovers/2012_Oct/acov_tid184707.gif)

*Artist: Infernal Necromancy
*Album: 2001-2002 [best of/compilation]
*Year: 2011
*Genre: Black Metal
*Country: Japan (IMG:http://metalarea.org/forum/style_images/flags/Japan.png)
*Format: mp3@VBR302kbps
*Size: 91MB

Tracklist:
01. Necronomicon 02:47
02. Infernal Necromancy 03:13
03. NxAxBx 01:57
04. Gate 04:38
05. Amduscias 04:06
06. Monotonus Junk Fuck 04:49
07. Black Wolf War 03:54
08. Unnatural Death 03:43
09. Immortal Tyrant (Unreleased Song) 02:24
10. Suffocated Life, Bequest Body (Unreleased Song) 02:31
11. Forgotten Wisdom (Original) 04:28
12. Black Wolf War 03:49
******************************
Total playing time: 42:19

(IMG:http://metalarea.org/images/myspace.png)

Extended info


(IMG:http://metalarea.org/images/spectrogram/2012_Oct/edeafa69db69519f538a8daeb2750102.png)
Input File: 02-infernal_necromancy-infernal_necromancy.mp3
Channels : 2
Sample Rate : 44100
Precision : 16-bit
Duration : 00:03:13.96 = 8553592 samples = 14546.9 CDDA sectors
File Size : 7.50M
Bit Rate : 309k
Sample Encoding: MPEG audio (layer I, II or III)
Comments :
Title=Infernal Necromancy
Artist=Infernal Necromancy
Album=2001-2002
Tracknumber=2/12
Year=2011-12-10
Genre=Black Metal


Register


Go to the top of the page
  Insert nick Quick quote
+Quote Post
 
Start new topic
Replies (1 - 1)
post Jun 13 2018, 16:46:42
Post #2

Четыре Литра
****
Group: Металариец
Posts: 384
Releases: 0
On Forums: 9 years 8 months
Thanks: 34 time(s)
United States


Re-upload please!
Go to the top of the page
  Insert nick Quick quote
+Quote Post

Reply to this topicStart new topic
2 User(s) are reading this topic (2 Guests and 0 Anonymous Users)
0 Members:

 



- Lo-Fi Version Support form
Copyrights and abuse reports form
Time is now: 20th June 2018 - 00:32:21