Welcome Guest ( Log In | Register )

 
Reply to this topicStart new topic
> Lacerated And Carbonized - Third World Slavery [single] (2012), Death Metal
post Oct 22 2012, 16:44:02
Post #1

Thrash, Beer & Violence
**************
Group: Металариец
Posts: 5,503
Releases: 2772
From: Крестов Брод (Russland)
On Forums: 11 years 6 months
Thanks: 39915 time(s)
Russian Federation


(IMG:http://metalarea.org/images/audiocovers/2012_Oct/acov_tid185257_thumb.jpg)

*Artist: Lacerated and Carbonized
*Album: Third World Slavery [single]
*Year: 2012
*Genre: Death Metal
*Country: Brazil (IMG:http://metalarea.org/forum/style_images/flags/Brazil.png)
*Format: mp3@CBR320kbps
*Size: 18MB

Tracklist:
1. L.A.C. 02:09
2. Third World Slavery 02:55
3. Awake the Thirst 02:51
******************************
Total playing time: 7:55

OFFICIAL
(IMG:http://metalarea.org/images/myspace.png)

Extended info


(IMG:http://metalarea.org/images/spectrogram/2012_Oct/033f13c666482f5e7e1c75ddba069874.png)
Input File: 01 - L A C.mp3
Channels : 2
Sample Rate : 44100
Precision : 16-bit
Duration : 00:02:09.34 = 5703674 samples = 9700.13 CDDA sectors
File Size : 5.18M
Bit Rate : 320k
Sample Encoding: MPEG audio (layer I, II or III)
Comments :
Title=L.A.C.
Artist=Lacerated and Carbonized
Album=Third World Slavery
Year=2012



Register


This post has been edited by DarkHorde: Jan 28 2014, 13:53:54


Go to the top of the page
  Insert nick Quick quote
+Quote Post

Reply to this topicStart new topic
1 User(s) are reading this topic (1 Guests and 0 Anonymous Users)
0 Members:

 



- Lo-Fi Version Support form
Copyrights and abuse reports form
Time is now: 25th April 2019 - 21:10:10