Welcome Guest ( Log In | Register )

> Attomica - Atomica 2005 [demo] (2005), Thrash Metal (D7)
post Oct 23 2012, 19:38:13
Post #1

Join my religion, or die
**************
Group: Металариец
Posts: 10,727
Releases: 1528
From: Питера
On Forums: 10 years 9 months
Thanks: 19813 time(s)
Russian Federation


(IMG:http://metalarea.org/images/audiocovers/2012_Oct/acov_tid185355_thumb.jpg)

*Artist: Attomica
*Album: Atomica 2005 [demo]
*Year: 2005
*Genre: Thrash Metal
*Country: Brazil (IMG:http://metalarea.org/forum/style_images/flags/Brazil.png)
*Format: mp3@CBR320kbps
*Size: 45MB

Tracklist:
1. In Hell We Live 04:06
2. Under Pressure 05:56
3. Dying Mission 05:08
4. Step Mother Nature 05:06
******************************
Total playing time: 20:16

Extended info


(IMG:http://metalarea.org/images/spectrogram/2012_Oct/bfa44b5b88aea56dc063beb7a9a7eefb.png)
Input File: 01 - In Hell We Live.mp3
Channels : 2
Sample Rate : 44100
Precision : 16-bit
Duration : 00:04:06.10 = 10852966 samples = 18457.4 CDDA sectors
File Size : 9.85M
Bit Rate : 320k
Sample Encoding: MPEG audio (layer I, II or III)
Comments :
Title=In Hell We Live
Artist=Attomica
Album=Atomica 2005 (Demo)
Tracknumber=1
Year=2005
Genre=Thrash Metal



Register


Go to the top of the page
  Insert nick Quick quote
+Quote Post
 
Start new topic
Replies (1 - 7)
post Dec 9 2012, 22:40:31
Post #2

_ - = # Thrashogolic # = - _ ... а давайте поржём все вместе
**************
Group: Металариец
Posts: 21,095
Releases: 4444
From: 404
On Forums: 10 years 2 weeks
Thanks: 27874 time(s)
Ukraine


Also these tracks were included as bonus at Attomica - Attomica [remastered 2006] (1987)


Thanks:
Go to the top of the page
  Insert nick Quick quote
+Quote Post
post Aug 31 2013, 16:35:45
Post #3

Правь статус, ####!111
**************
Group: Металариец
Posts: 46,731
Releases: 730
On Forums: 11 years 1 month
Thanks: 39386 time(s)
Russian Federation


Недаром эти трэки кидают к переизданию первого альбома. Тут все как в старые добрые неоновые 80-е. Звук, музыка, вокал. И пусть скоростей здесь не так много, зато в неимоверном количестве присутсвует просто атомно-бомбящий К.А.Ч. А большего от трэша и группы не надо. Оправдывают звание классики, хоть и безнадежно позабытой. Но она ревущим пламенем всегда колыхае-полыхает в сердцах любителя Трэша с большой буквы.

Браво, ребятишки!!! РОЛЛ. (IMG:style_emoticons/default/metaler.gif)
Go to the top of the page
  Insert nick Quick quote
+Quote Post
post Nov 29 2019, 13:07:21
Post #4

The Angel Of Death
**************
Group: Металариец
Posts: 5,527
Releases: 49
From: Луганск, 13 регион, экс-404
On Forums: 14 years 7 months
Thanks: 1801 time(s)
Papua New Guinea


please re-up
Go to the top of the page
  Insert nick Quick quote
+Quote Post
post Jun 30 2020, 09:02:09
Post #5

Forever Underground
**************
Group: Металариец
Posts: 7,076
Releases: 0
On Forums: 5 years 2 months
Thanks: 8981 time(s)
Unknown


QUOTE(Alexis The Best @ Nov 29 2019, 14:07:21) *
please re-up

x 2 (IMG:style_emoticons/default/pray.gif) PLEASE anyone re-up this version @320:
Attomica - Atomica 2005 [demo] (2005) [post #1384735]
I have another rip @128kbps only... (IMG:style_emoticons/default/6.gif)
Register


Thanks:
(1) Wail,
Go to the top of the page
  Insert nick Quick quote
+Quote Post
post Jul 1 2020, 19:04:50
Post #6

Join my religion, or die
**************
Group: Металариец
Posts: 10,727
Releases: 1528
From: Питера
On Forums: 10 years 9 months
Thanks: 19813 time(s)
Russian Federation


thenecromancer, i don’t have it already, sorry...
Go to the top of the page
  Insert nick Quick quote
+Quote Post
post Jul 1 2020, 19:38:04
Post #7

Forever Underground
**************
Group: Металариец
Posts: 7,076
Releases: 0
On Forums: 5 years 2 months
Thanks: 8981 time(s)
Unknown


QUOTE(slack @ Jul 1 2020, 20:04:50) *
I don’t have it already, sorry...

No problem bro!
EDIT: thanx for re-up!!! (IMG:style_emoticons/default/smile1.gif) (IMG:style_emoticons/default/alkash.gif) (IMG:style_emoticons/default/9.gif)
Go to the top of the page
  Insert nick Quick quote
+Quote Post
post Jul 1 2020, 20:29:02
Post #8

Join my religion, or die
**************
Group: Металариец
Posts: 10,727
Releases: 1528
From: Питера
On Forums: 10 years 9 months
Thanks: 19813 time(s)
Russian Federation


Special for thenecromancer only (IMG:style_emoticons/default/15.gif)
karelia -320
Register


Thanks:
Go to the top of the page
  Insert nick Quick quote
+Quote Post

Reply to this topicStart new topic
2 User(s) are reading this topic (2 Guests and 0 Anonymous Users)
0 Members:

 



- Lo-Fi Version Support form
Copyrights and abuse reports form
Time is now: 6th July 2020 - 02:46:56