Welcome Guest ( Log In | Register )

> Dommedagssalme - To That Which Lies Dormant [demo] (2012), Atmospheric Black Metal
post Oct 28 2012, 12:10:41
Post #1

Serial Uploader
Group Icon
Group: V.I.P
Posts: 37,017
Releases: 35199
From: Lithuania
On Forums: 11 years 8 months
Thanks: 414926 time(s)
Lithuania


(IMG:http://metalarea.org/images/audiocovers/2012_Oct/acov_tid185772_thumb.png)

*Artist: Dommedagssalme
*Album: To That Which Lies Dormant [demo]
*Year: 2012
*Genre: Atmospheric Black Metal
*Country: United Kingdom (IMG:http://metalarea.org/forum/style_images/flags/United%20Kingdom.png)
*Format: mp3@CBR320kbps
*Size: 86MB

Tracklist:
01. To That Which Lies Dormant 37:30
******************************
Total playing time: 37:30

Preview 1

Extended info
Originally recorded in 2005.
Released in 2012 by Fallen Empire Records
(IMG:http://metalarea.org/images/spectrogram/2013_Feb/a43b98ae4e0d212da796996f8a505a65.png)
Input File: 01. To That Which Lies Dormant.mp3
Channels : 2
Sample Rate : 44100
Precision : 16-bit
Duration : 00:37:30.29 = 99237965 samples = 168772 CDDA sectors
File Size : 90.0M
Bit Rate : 320k
Sample Encoding: MPEG audio (layer I, II or III)
Comments :
Title=To That Which Lies Dormant
Artist=Dommedagssalme
Album=To That Which Lies Dormant
Tracknumber=1
Year=2012



Register


This post has been edited by DarkHorde: Sep 26 2013, 12:59:25


Go to the top of the page
  Insert nick Quick quote
+Quote Post
 
Start new topic
Replies (1 - 2)
post Nov 18 2012, 17:56:52
Post #2

___
**************
Group: Металариец
Posts: 2,073
Releases: 12
On Forums: 11 years 6 months
Thanks: 2851 time(s)
Russian Federation


Совершенно сумасбродный, мрачный, с невнятным скримингом атмосферный блэк невобразимой продолжительности - и трудно к этому что-либо добавить. Ни грамма не цепляет. Сочиняет и в одиночку записывает всё это дело некий англичанин Джон Маршалл. В этом году уже вышел дебютный полноформатник Джона, и там треклист хотя бы был разбит на композиции длиной от 9-ти до 16-ти минут с небольшими 2-минутными инструменталами между этих композиций. А здесь - одно сплошное мрачное месиво, очень и очень вряд ли представляющее какой-либо интерес. Даже, подозреваю, для верных поклонников жанра. 6.5/10


Thanks:
(1) RENыч,
Go to the top of the page
  Insert nick Quick quote
+Quote Post
post Oct 7 2015, 23:31:29
Post #3

Правь статус, ####!111
**************
Group: Металариец
Posts: 4,231
Releases: 1145
From: Brazil
On Forums: 8 years 3 weeks
Thanks: 42580 time(s)
Brazil


Register


Go to the top of the page
  Insert nick Quick quote
+Quote Post

Reply to this topicStart new topic
1 User(s) are reading this topic (1 Guests and 0 Anonymous Users)
0 Members:

 



- Lo-Fi Version Support form
Copyrights and abuse reports form
Time is now: 25th February 2020 - 01:23:29