Welcome Guest ( Log In | Register )

> Morbid Corpses - Demonstration Of Devastation [demo] (1991), Death/Thrash Metal
post Oct 28 2012, 14:28:37
Post #1

Подвал
**************
Group: Металариец
Posts: 12,767
Releases: 7163
From: Far East (Khabarovsk)
On Forums: 9 years 10 months
Thanks: 67018 time(s)
Russian Federation


(IMG:http://metalarea.org/images/audiocovers/2012_Oct/acov_tid185785_thumb.jpg)

*Artist: Morbid Corpses
*Album: Demonstration Of Devastation [demo]
*Year: 1991
*Genre: Death/Thrash Metal
*Country: United States (IMG:http://metalarea.org/forum/style_images/flags/United%20States.png)
*Format: mp3@CBR320kbps
*Size: 21MB

Tracklist:
1. Medical Genocide 03:43
2. Fallen From Grace / Upon The Battlefield 03:39
3. Afterworld 02:35
******************************
Total playing time: 9:57

Extended info
Evil Incarnate members.

(IMG:http://metalarea.org/images/spectrogram/2012_Oct/2c661ed3b16f7180c66bbc2ac5ff564e.png)
Input File: 01-Medical Genocide.mp3
Channels : 2
Sample Rate : 44100
Precision : 16-bit
Duration : 00:03:43.72 = 9865832 samples = 16778.6 CDDA sectors
File Size : 8.95M
Bit Rate : 320k
Sample Encoding: MPEG audio (layer I, II or III)
Comments :
Title=Medical Genocide
Artist=Morbid Corpses
Album=Demonstrations Of Devastation
Tracknumber=01
Year=1991
Genre=Thrash Metal



Register


Go to the top of the page
  Insert nick Quick quote
+Quote Post
 
Start new topic
Replies (1 - 2)
post Nov 18 2014, 11:15:36
Post #2

Подвал
**************
Group: Металариец
Posts: 12,767
Releases: 7163
From: Far East (Khabarovsk)
On Forums: 9 years 10 months
Thanks: 67018 time(s)
Russian Federation


new link:


Register




Go to the top of the page
  Insert nick Quick quote
+Quote Post
Blake
post Dec 7 2017, 11:09:29
Post #3

Guests team






CBR320kbps
Register


Go to the top of the page
  Insert nick Quick quote
+Quote Post

Reply to this topicStart new topic
1 User(s) are reading this topic (1 Guests and 0 Anonymous Users)
0 Members:

 



- Lo-Fi Version Support form
Copyrights and abuse reports form
Time is now: 14th December 2018 - 06:09:12