Welcome Guest ( Log In | Register )

 
Reply to this topicStart new topic
> Klone - The Eye Of Needle [ep] (2011), Progressive Metal
post Oct 29 2012, 17:16:24
Post #1

Thrash, Beer & Violence
**************
Group: Металариец
Posts: 5,503
Releases: 2772
From: Крестов Брод (Russland)
On Forums: 12 years 3 months
Thanks: 40221 time(s)
Russian Federation


(IMG:http://metalarea.org/images/audiocovers/2012_Oct/acov_tid185881_thumb.jpg)

*Artist: Klone
*Album: The Eye Of Needle [ep]
*Year: 2011
*Genre: Progressive Metal
*Country: France (IMG:http://metalarea.org/forum/style_images/flags/France.png)
*Format: mp3@CBR320kbps
*Size: 39MB

Tracklist:
1. The Eye of Needle Part 1 10:19
2. The Eye of Needle Part 2 06:43
******************************
Total playing time: 17:02


(IMG:http://metalarea.org/images/myspace.png)

Extended info


(IMG:http://metalarea.org/images/spectrogram/2012_Oct/9989943279245bd5fd22136015c9ca92.png)
Input File: 02 The Eye Of Needle part 2.mp3
Channels : 2
Sample Rate : 44100
Precision : 16-bit
Duration : 00:06:43.50 = 17794306 samples = 30262.4 CDDA sectors
File Size : 16.1M
Bit Rate : 320k
Sample Encoding: MPEG audio (layer I, II or III)
Comments :
Title=The Eye of Needle Part 2
Artist=Klone
Album=The Eye of Needle
Tracknumber=2
Year=2011
Genre=ProgMetal


Register


Go to the top of the page
  Insert nick Quick quote
+Quote Post

Reply to this topicStart new topic
1 User(s) are reading this topic (1 Guests and 0 Anonymous Users)
0 Members:

 



- Lo-Fi Version Support form
Copyrights and abuse reports form
Time is now: 22nd January 2020 - 02:50:11