Welcome Guest ( Log In | Register )

> Sonne Adam - Messengers Of Desolate Ways [best of/compilation] (2012), Death/Doom Metal
post Oct 29 2012, 19:46:15
Post #1

Serial Uploader
Group Icon
Group: V.I.P
Posts: 37,515
Releases: 35690
From: Lithuania
On Forums: 12 years 4 months
Thanks: 428976 time(s)
Lithuania


(IMG:http://metalarea.org/images/audiocovers/2012_Oct/acov_tid185900_thumb.jpg)

*Artist: Sonne Adam
*Album: Messengers Of Desolate Ways [best of/compilation]
*Year: 2012
*Genre: Death/Doom Metal
*Country: Israel (IMG:http://metalarea.org/forum/style_images/flags/Israel.png)
*Format: mp3@CBR320kbps
*Size: 183MB

Tracklist:
01. Hater Of Mankind 07:15
02. The Day I Chose To Rot 05:46
03. World Of Everlasting Darkness 05:48
04. Bestow The Crown Of Death 04:08
05. The Deceiver Of The Desolations 05:47
06. Olam Belehavoth 06:39
07. Funeral Marches To The Grave (Thorns Cover) 08:00
08. The Way 05:18
09. Armed With Hammers 03:53
10. The Serpents Harvest (Darkthrone Cover) 03:40
11. I Dream The Devil Sign 03:41
12. No Blood Flow 06:11
13. The Sun Is Dead 04:04
14. Inside His Mark 04:20
15. Funeral Marches To The Grave (Thorns Cover) (Melek-Tha Mix) 06:47
******************************
Total playing time: 1:21:17

(IMG:http://metalarea.org/images/myspace.png)

Extended info


(IMG:http://metalarea.org/images/spectrogram/2012_Oct/75e49eb7a8b9869f854dbcb09e0584d6.png)
Input File: 02 The Day I Chose to Rot.mp3
Channels : 2
Sample Rate : 44100
Precision : 16-bit
Duration : 00:05:46.86 = 15296658 samples = 26014.7 CDDA sectors
File Size : 13.9M
Bit Rate : 320k
Sample Encoding: MPEG audio (layer I, II or III)
Comments :
Title=The Day I Chose to Rot
Artist=Sonne Adam
Album=Messengers of Desolate Ways
Tracknumber=02
Year=2012
Genre=Metal



Register


Go to the top of the page
  Insert nick Quick quote
+Quote Post
 
Start new topic
Replies (1 - 6)
post Oct 30 2012, 08:27:27
Post #2

hearer & reader
**************
Group: Металариец
Posts: 9,119
Releases: 158
From: Moscow
On Forums: 13 years 1 month
Thanks: 9641 time(s)
Russian Federation


2 EP, single + 1 cover song -> (IMG:style_emoticons/default/smile1.gif)
Зато теперь в 320.
Go to the top of the page
  Insert nick Quick quote
+Quote Post
post Oct 30 2012, 09:46:46
Post #3

butcher da weak
*****
Group: Металариец
Posts: 449
Releases: 6
On Forums: 13 years 3 months
Thanks: 145 time(s)
Virgin Islands


ЦИТАТА(AHBAnep @ Oct 30 2012, 11:27:27) *
2 EP, single + 1 cover song -> (IMG:style_emoticons/default/smile1.gif)

т.к. эти самые еп не были изнады на сенчури медия, что весьма странно. как минимум одна была выпущена когда у них уже был подписан контракт. видимо не любят они миники)
Go to the top of the page
  Insert nick Quick quote
+Quote Post
post Oct 30 2012, 12:28:45
Post #4
BAN
RO till
--



Туь вопрос в другом (IMG:style_emoticons/default/11.gif) Шоь такой перчсонаж , как Davidov -Armed with Hammers EP 2010
Transformation Full-length 2011 4 (86%)
The Sun Is Dead EP 2012
Doctrines of Dark Devotion EP 2012 -Выпускал -Бэст .-ксакие то 86 процентов выплывают = отстой ФСБ ЧО ЭТО Я НЕ МОГУ НОРМВАЛЬНО НАПИСАТЬ ПОСТ = ЕЕЕСУС ШУТИТ


Thanks:
(1) WOLAND,
Go to the top of the page
  Insert nick Quick quote
+Quote Post
post Oct 30 2012, 14:03:40
Post #5

Шесть Литров
******
Group: Металариец
Posts: 517
Releases: 6
On Forums: 14 years 4 months
Thanks: 130 time(s)
Russian Federation


Это что, кошерный дум метал?
Ладно, послушаю.


Thanks:
(1) iriktaru,
Go to the top of the page
  Insert nick Quick quote
+Quote Post
post Mar 11 2015, 21:31:15
Post #6

Правь статус, ####!111
**************
Group: Металариец
Posts: 47,475
Releases: 747
On Forums: 11 years 4 months
Thanks: 40688 time(s)
Russian Federation


Полноформатом они меня очень порадовали, а это - та же стезя. Мрачно, атмосферно, обволакивающе и оккультно. Монолитно. Несмотря на здоровенный хронометраж, интересность музыки вкупе с идеальной связкой музыка-вокал ни сколько не исчезает к концу релиза. Крайне рекомендую.


Thanks:
(1) samokot,
Go to the top of the page
  Insert nick Quick quote
+Quote Post
post Jul 19 2015, 21:39:32
Post #7

Правь статус, ####!111
**************
Group: Металариец
Posts: 7,166
Releases: 165
From: URUGUAY
On Forums: 14 years 1 month
Thanks: 20349 time(s)
Uruguay


320
Register


Go to the top of the page
  Insert nick Quick quote
+Quote Post

Reply to this topicStart new topic
1 User(s) are reading this topic (1 Guests and 0 Anonymous Users)
0 Members:

 



- Lo-Fi Version Support form
Copyrights and abuse reports form
Time is now: 31st October 2020 - 02:40:23