Welcome Guest ( Log In | Register )

> Dommedagssalme - Chasm (2012), Atmospheric Black Metal/Ambient
post Oct 29 2012, 21:10:40
Post #1

Шесть Литров
******
Group: Металариец
Posts: 654
Releases: 42
From: М.О.
On Forums: 12 years 2 months
Thanks: 3306 time(s)
Russian Federation


(IMG:http://metalarea.org/images/audiocovers/2012_Oct/acov_tid185908_thumb.jpg)

*Artist: Dommedagssalme
*Album: Chasm
*Year: 2012
*Genre: Atmospheric Black Metal/Ambient
*Country: United Kingdom (IMG:http://metalarea.org/forum/style_images/flags/United%20Kingdom.png)
*Format: mp3@CBR320kbps
*Size: 185MB

Tracklist:
01. Untitled 02:40
02. Passage 09:50
03. Untitled 03:02
04. Cadence 13:24
05. Untitled 02:32
06. Dissolution 12:3
07. Untitled 02:06
08. Vicissitude 09:42
09. Untitled 02:32
10. Departure 16:06
11. Untitled 03:32
******************************
Total playing time: 1:05:26

Preview 1

Extended info

Self released. Limited to 100 Pro CDrs.

(IMG:http://metalarea.org/images/spectrogram/2012_Oct/ef0a005f8d3ce9eeeba19bd6bcf377c4.png)
Input File: 06 - Dissolution.mp3
Channels : 2
Sample Rate : 44100
Precision : 16-bit
Duration : 00:12:30.25 = 33086157 samples = 56269 CDDA sectors
File Size : 30.0M
Bit Rate : 320k
Sample Encoding: MPEG audio (layer I, II or III)
Comments :
Title=Dissolution
Artist=Dommedagssalme
Album=Chasm
Tracknumber=06
Year=2012
Genre=atmospheric black / ambient
Discnumber=1/1



Register


This post has been edited by DarkHorde: Sep 26 2013, 12:59:18


Go to the top of the page
  Insert nick Quick quote
+Quote Post
 
Start new topic
Replies (1 - 5)
post Oct 31 2012, 19:15:24
Post #2

Два Литра
**
Group: Завсегдатай
Posts: 140
Releases: 0
From: Москва
On Forums: 9 years 8 months
Thanks: 63 time(s)
Russian Federation


Неплохой атмосферик, но альбом очень затянут, устала от него, пока слушала. Его лучше включать как фон.
Еще, как по мне, то тут многовато однообразного вокала.

Go to the top of the page
  Insert nick Quick quote
+Quote Post
post Dec 28 2014, 19:44:03    Сейчас играет: Benighted - Infernal Killings
Post #3

antithesis
**************
Group: Металариец
Posts: 2,562
Releases: 30
From: VRN
On Forums: 8 years 8 months
Thanks: 1422 time(s)
Russian Federation


reuploaded

Register


Go to the top of the page
  Insert nick Quick quote
+Quote Post
post Oct 7 2015, 23:29:31
Post #4

Правь статус, ####!111
**************
Group: Металариец
Posts: 3,518
Releases: 781
From: Brazil
On Forums: 7 years 2 weeks
Thanks: 29633 time(s)
Brazil


Register

320


Thanks:
Go to the top of the page
  Insert nick Quick quote
+Quote Post
post Feb 9 2019, 18:17:04
Post #5

Group: Подсевший
Posts: 20
Releases: 0
On Forums: 7 months 4 days
Thanks: 3 time(s)
Poland


Reupload please!
Go to the top of the page
  Insert nick Quick quote
+Quote Post
post Feb 11 2019, 13:27:41
Post #6


Group Icon
Group: S-moderation team
Posts: 8,785
Releases: 1429
On Forums: 7 years 11 months
Thanks: 41768 time(s)
Croatia


Register


Go to the top of the page
  Insert nick Quick quote
+Quote Post

Reply to this topicStart new topic
2 User(s) are reading this topic (2 Guests and 0 Anonymous Users)
0 Members:

 



- Lo-Fi Version Support form
Copyrights and abuse reports form
Time is now: 17th February 2019 - 00:50:29