Welcome Guest ( Log In | Register )

> Soulspell - Hollow's Gathering (2012), Symphonic Power Metal Opera
post Nov 18 2012, 09:16:26
Post #1

Аннигилятор пивА
Group Icon
Group: V.I.P
Posts: 52,356
Releases: 16556
From: Koenigsberg - TILZIT
On Forums: 13 years 4 weeks
Thanks: 361177 time(s)
Russian Federation


(IMG:http://metalarea.org/images/audiocovers/2012_Nov/acov_tid187424_thumb.jpg)

*Artist: Soulspell
*Album: Hollow's Gathering
*Year: 2012
*Genre: Symphonic Power Metal Opera
*Country: Brazil (IMG:http://metalarea.org/forum/style_images/flags/Brazil.png)
*Format: mp3@CBR320kbps
*Size: 137MB

Tracklist:
01. Hollow's Gathering 09:13
02. A Rescue Into The Storm 06:16
03. To Crawl Or To Fly 06:30
04. Anymore 04:45
05. Adrian's Call 04:09
06. Change The Tide 05:16
07. From Hell 01:27
08. The Keeper's Game 05:45
09. The Dead Tree 06:46
10. Whispers Inside You 04:07
******************************
Total playing time: 54:14

(IMG:http://metalarea.org/images/myspace.png)

Extended info
+SCANS
The third full-lenght album from the Brazilian power metal opera project. “Hollow’s Gathering” is the third episode of the Metal Opera saga, initiated by Heleno Vale under the name of SOULSPELL.
The music as expected is very much in the same vein as the previous SOULSPELL's albums: epic melodic Power Metal like AVANTASIA or AINA, even with more focused on the storytelling concept with each character exclusively represented by a guest singer in particular.
"Hollow's Gathering" feat. guest appearances by Tim "Ripper" Owens [ex. Judas Priest, Iced Earth], Blaze Bailey [ex. Iron Maiden], Michael Vescera [Obsession, ex. Loudness, Yngwie Malmsteen], Amanda Sommerville [Trillium, Avantasia], Markus Grosskopf [Helloween] and many more. The album was mixed by Matt Smith [Theocracy] and mastered by Miro at The Gate Studio [Avantasia, Kamelot, Rhapsody]. Artwork was created by Felipe Machado Franco [Blind Guardian, Rhapsody of Fire, Iced Earth].
Music:
Cleiton Carvalho: guitar
Leandro Erba: guitar
Marco Lambert: guitar
Rodolfo Pagotto: guitar
Rollie Feldman: guitar
Thiago Amendola: guitar
Markus Grosskopf: bass
Fernando Giovannetti: bass
Heleno Vale: drums
Edu Santos: drums
Gabriel Viotto: drums
Fabio Laguna: keyboards
Gabriel Magioni: keyboards
Frank Tischer: piano
Lyrics:
Amanda Somerville: vocals
Blaze Bayley: vocals
Carlos Zema: vocals
Daisa Munhoz: vocals
Gui Antonioli: vocals
Iuri Sanson: vocals
Jefferson Albert: vocals
Leandro Cacoilo: vocals
Ligia Ishitani: vocals
Lucas Martins: vocals
Manuela Saggioro: vocals
Mario Pastore: vocals
Matt Smith: vocals
Michel Souza: vocals
Michael Vescera: vocals
Nando Fernandes: vocals
Pedro Campos: vocals
Tito Falaschi: vocals, bass
Tim “Ripper” Owens: vocals
Victor Emeka: vocals



(IMG:http://metalarea.org/images/spectrogram/2012_Nov/e4db0c31305cba3065a62cfb36c82a36.png)
Input File: 05. Adrian\'s Call.mp3
Channels : 2
Sample Rate : 44100
Precision : 16-bit
Duration : 00:04:28.62 = 11846098 samples = 20146.4 CDDA sectors
File Size : 10.7M
Bit Rate : 320k
Sample Encoding: MPEG audio (layer I, II or III)
Comments :
Title=Adrian's Call
Artist=Soulspell
Album=Hollow's Gathering
Tracknumber=05
Year=2012
Genre=Epic /Symphonic Power Metal Opera



Register


Более полный буклет с текстами, ежели кому надо
33MB
Register


Go to the top of the page
  Insert nick Quick quote
+Quote Post
 
Start new topic
Replies (1 - 6)
post Nov 18 2012, 10:25:45
Post #2

Маньяк
**********
Group: Металариец
Posts: 1,215
Releases: 0
From: Russian Federation - St.Petersburg
On Forums: 10 years 3 months
Thanks: 278 time(s)
Russian Federation


Однако впечетляющий составчик проекта! (IMG:style_emoticons/default/smile4.gif)
Спасибо, забираю!
Go to the top of the page
  Insert nick Quick quote
+Quote Post
post Nov 18 2012, 17:21:27
Post #3

Skoddefjellet
**************
Group: Металариец
Posts: 5,741
Releases: 780
From: Sognefjord
On Forums: 10 years 9 months
Thanks: 6907 time(s)
Faroe Islands


Бразильская Рапсодия? (IMG:style_emoticons/default/hmm.gif)
Go to the top of the page
  Insert nick Quick quote
+Quote Post
post Nov 19 2012, 14:41:11
Post #4

Аннигилятор пивА
Group Icon
Group: V.I.P
Posts: 52,356
Releases: 16556
From: Koenigsberg - TILZIT
On Forums: 13 years 4 weeks
Thanks: 361177 time(s)
Russian Federation


ЦИТАТА(norfin @ Nov 18 2012, 16:21:27) *
Бразильская Рапсодия? (IMG:style_emoticons/default/hmm.gif)

ну есть от ранней конечно, без электроники и поразнообразнее (IMG:style_emoticons/default/1488.gif) тут и от хэллоуэна и от авантазии естесственно, да все превнесли чего-то от своих команд (IMG:style_emoticons/default/smile1.gif) особенно когда петь начинают, кстати эта часть саги более энергичная и складно-монументальная чем прошлые
Go to the top of the page
  Insert nick Quick quote
+Quote Post
post Nov 23 2012, 09:07:56
Post #5

Наливай!
**************
Group: Металариец
Posts: 5,326
Releases: 27
From: Москва-Бибирево
On Forums: 11 years 3 months
Thanks: 2550 time(s)
Russian Federation


ЦИТАТА(aesteticvice @ Nov 19 2012, 17:41:11) *
ну есть от ранней конечно

Да нет там никакой Рапсодии, тем более ранней. Вполне самостоятельная работа. Правда щас таких кучами плодятся, но эта ещё более менее. С Блэйзом Бэйли нормальная такая песенка.
Go to the top of the page
  Insert nick Quick quote
+Quote Post
post May 29 2017, 09:46:32
Post #6

Мегаманьяк
***********
Group: Металариец
Posts: 1,780
Releases: 0
On Forums: 6 years 7 months
Thanks: 2554 time(s)
Russian Federation


127 mb/320 кб/с
Register
Go to the top of the page
  Insert nick Quick quote
+Quote Post
post Mar 16 2019, 21:20:32
Post #7

21st Century Schizoid Man
**************
Group: Металариец
Posts: 5,826
Releases: 69
From: Moscow
On Forums: 11 years 1 month
Thanks: 4472 time(s)
Russian Federation


Наверное, один из лучших альбомов проекта. Если сравнивать с Авантазией того же времени, то Вале довольно легко наваливает Заммету. Обожаю здесь голоса Дайсы Муньос (Daísa Munhoz) из Vandroya и Аманды Саммервилль. (IMG:style_emoticons/default/19.gif)
Go to the top of the page
  Insert nick Quick quote
+Quote Post

Reply to this topicStart new topic
1 User(s) are reading this topic (1 Guests and 0 Anonymous Users)
0 Members:

 



- Lo-Fi Version Support form
Copyrights and abuse reports form
Time is now: 26th June 2019 - 06:42:22