Welcome Guest ( Log In | Register )

> Dragon & Wolf Spider & Destroyers & Stos - Metal Invasion [split] (1987), Thrash Metal
post Nov 20 2012, 14:28:24
Post #1

Old Skull Thrash & Death
******
Group: Металариец
Posts: 506
Releases: 286
From: Oberschlesien
On Forums: 9 years 4 months
Thanks: 2421 time(s)
Poland


(IMG:http://metalarea.org/images/audiocovers/2012_Nov/acov_tid187584_thumb.jpg)

*Artist: Dragon & Wolf Spider & Destroyers & Stos
*Album: Metal Invasion [split]
*Year: 1987
*Genre: Thrash Metal | Technical Thrash Metal | Thrash Metal | Heavy Metal
*Country: Poland (IMG:http://metalarea.org/forum/style_images/flags/Poland.png) | Poland (IMG:http://metalarea.org/forum/style_images/flags/Poland.png) | Poland (IMG:http://metalarea.org/forum/style_images/flags/Poland.png) | Poland (IMG:http://metalarea.org/forum/style_images/flags/Poland.png)
*Format: mp3@CBR320kbps
*Size: 80MB

Tracklist:
Wolf Spider:
1. Prog Swiadomosci 08:04
2. Thrashers 03:31
Stos:
3. Sabat 06:22
4. Czas Wilka 03:50
Dragon:
5. Demony Wojny 05:16
6. Siedem Czasz Gniewu 06:02
Destroyers:
7. Bastiony Smierci 04:39
8. Mlot Na Swieta Inkwizycje 05:45
******************************
Total playing time: 43:29

Preview 1

Extended info


(IMG:http://metalarea.org/images/spectrogram/2012_Nov/166ce0a515ee5adf07dc33168bc081d8.png)
Input File: 02-Wilczy paj?k - Thrashers.mp3
Channels : 2
Sample Rate : 44100
Precision : 16-bit
Duration : 00:03:19.63 = 8803551 samples = 14972 CDDA sectors
File Size : 7.99M
Bit Rate : 320k
Sample Encoding: MPEG audio (layer I, II or III)
Comments :
Album=Metal Invasion
Year=1987


Register


Go to the top of the page
  Insert nick Quick quote
+Quote Post
 
Start new topic
Replies (1 - 2)
post Oct 11 2019, 12:58:19
Post #2

Литр
*
Group: Подсевший
Posts: 56
Releases: 0
From: Poland
On Forums: 3 years 7 months
Thanks: 23 time(s)
Poland


All links are dead (IMG:style_emoticons/default/smile2.gif)
Can someone re-upload? (IMG:style_emoticons/default/pray.gif)
Go to the top of the page
  Insert nick Quick quote
+Quote Post
post Oct 11 2019, 13:23:51
Post #3

Group Icon
Group: S-moderation team
Posts: 15,711
Releases: 1440
From: Zagreb
On Forums: 9 years 4 months
Thanks: 70710 time(s)
Croatia


Register


Go to the top of the page
  Insert nick Quick quote
+Quote Post

Reply to this topicStart new topic
1 User(s) are reading this topic (1 Guests and 0 Anonymous Users)
0 Members:

 



- Lo-Fi Version Support form
Copyrights and abuse reports form
Time is now: 13th July 2020 - 00:11:59