Welcome Guest ( Log In | Register )

 
Reply to this topicStart new topic
> Stigmata - Acoustic & Drive [live] (2008), Modern Metal/Metalcore
post Nov 25 2012, 09:45:19
Post #1

BlaSk MetaliK
**************
Group: Металариец
Posts: 2,026
Releases: 307
From: Ա-շիրիմ
On Forums: 11 years 2 months
Thanks: 5652 time(s)
Armenia


(IMG:http://metalarea.org/images/audiocovers/2012_Nov/acov_tid188007.jpg)

*Artist: Stigmata
*Album: Acoustic & Drive [live]
*Year: 2008
*Genre: Modern Metal/Metalcore
*Country: Russian Federation (IMG:http://metalarea.org/forum/style_images/flags/Russian%20Federation.png)
*Format: mp3@CBR320kbps
*Size: 169MB

Tracklist:
1. Intro
2. Искра
3. Одиночество
4. Сентябрь
5. Лети
6. Мои Секунды
7. Как Ты
8. Свобода Выбирает Смерть
9. Цена Твоей Жизни
10. Последний Глоток
11. Желчь
12. Все Огни Сердец
13. Оставь Надежду
14. Бог Меня Простит
15. Крылья
16. Трафареты
17. Лед
18. Магмель
19. Сентябрь
20. Игра Вслепую
******************************
Total playing time: 1:13:59

(IMG:http://metalarea.org/images/myspace.png)

Extended info


(IMG:http://metalarea.org/images/spectrogram/2012_Nov/109e8bfed75c2314c922d772f79ee5aa.png)
Input File: 02 - Искра.mp3
Channels : 2
Sample Rate : 44100
Precision : 16-bit
Duration : 00:03:36.42 = 9544166 samples = 16231.6 CDDA sectors
File Size : 8.78M
Bit Rate : 324k
Sample Encoding: MPEG audio (layer I, II or III)
Comments :
Title=�скра
Artist=Stigmata
Album=Acoustic & Drive
Tracknumber=02
Year=2008
Genre=Metal


Register


Thanks:
Go to the top of the page
  Insert nick Quick quote
+Quote Post

Reply to this topicStart new topic
1 User(s) are reading this topic (1 Guests and 0 Anonymous Users)
0 Members:

 



- Lo-Fi Version Support form
Copyrights and abuse reports form
Time is now: 18th September 2020 - 09:49:52