Welcome Guest ( Log In | Register )

> И неформату есть предел.

Рэп/хип-хоп/шансон/поп удаляются. Для них есть свои порталы.

> Fields Of The Nephilim - Elizium (1990), Gothic Rock
post Nov 28 2012, 00:24:52
Post #1

Четыре Литра
****
Group: Металариец
Posts: 368
Releases: 4
From: Нижний Новгород
On Forums: 13 years 5 months
Thanks: 365 time(s)
Russian Federation


(IMG:http://metalarea.org/images/audiocovers/2012_Nov/acov_tid188180_thumb.jpg)

*Artist: Fields Of The Nephilim
*Album: Elizium
*Year: 1990
*Genre: Gothic Rock
*Country: United Kingdom (IMG:http://metalarea.org/forum/style_images/flags/United%20Kingdom.png)
*Format: mp3@CBR320kbps
*Size: 106MB

Tracklist:
1. (Dead But Dreaming)
2. For Her Light
3. At The Gates Of Silent Memory
4. (Paradise Regained)
5. Submission
6. Sumerland (What Dreams May Come)
7. Wail Of Sumer
8. And There Will Your Heart Be Also
******************************
Total playing time: 49:00

(IMG:http://metalarea.org/images/myspace.png)

Extended info
Password: metalarea.org

(IMG:http://metalarea.org/images/spectrogram/2012_Nov/66879a75e6e173d3a240ec8aa0c4b349.png)
Input File: 04-Moonchild.mp3
Channels : 2
Sample Rate : 44100
Precision : 16-bit
Duration : 00:05:40.00 = 14994000 samples = 25500 CDDA sectors
File Size : 13.6M
Bit Rate : 321k
Sample Encoding: MPEG audio (layer I, II or III)
Comments :
Title=Moonchild
Artist=Fields of the Nephilim
Album=The Nephilim
Tracknumber=04
Year=1988
Genre=Gothic Rock



Register


This post has been edited by Абигор: Nov 28 2012, 04:38:19


Go to the top of the page
  Insert nick Quick quote
+Quote Post
 
Start new topic
Replies (1 - 5)
post Nov 28 2012, 11:58:30
Post #2

Три Литра
***
Group: Завсегдатай
Posts: 218
Releases: 0
From: Пермь
On Forums: 12 years 2 months
Thanks: 21 time(s)
Russian Federation


Круто, Нефилимов выложили, этот альбом любимый у них
Go to the top of the page
  Insert nick Quick quote
+Quote Post
post Jun 17 2013, 11:59:02
Post #3

Самый Тихий Час
**************
Group: Металариец
Posts: 5,943
Releases: 2
On Forums: 10 years 6 months
Thanks: 2746 time(s)
Unknown


Это нечто. Загадочное и грустное. Или меланхоличное. Как серые проблески рассвета при ещё не сгинувшей ночи.
У этой музыки своя собственная атмосфера, открывающая путь для ухода от суеты человечьего дня чтобы задуматься о чём то
не видном взгляду, чём то таком что в повседневной жизни покажется скорее не нормальным и лишним.
Надрывы пробивающегося серого рассвета из запредельных сфер.
Странных и иных...
Немного тревожно, эти звуки дают предвкушение нечто.
Голос как будто взывает всё сильнее нечто внутри в самой глубине к пробуждению.
И в то же время ты спокоен, ведь ты знаешь что это останется в том моменте
в ночи закрытым от чьих то ещё глаз...


Thanks:
(1) Evjenne,
Go to the top of the page
  Insert nick Quick quote
+Quote Post
post Oct 10 2014, 15:40:10
Post #4

Маньяк
**********
Group: Металариец
Posts: 1,209
Releases: 0
From: Kaliningrad
On Forums: 12 years 4 months
Thanks: 440 time(s)
Russian Federation


Chasm Как же я с тобой согласен
Go to the top of the page
  Insert nick Quick quote
+Quote Post
post May 20 2020, 01:40:45
Post #5

Group: Подсевший
Posts: 13
Releases: 0
On Forums: 8 months 3 weeks
Thanks: 0 time(s)
Unknown


Any new 320kbps link?
Go to the top of the page
  Insert nick Quick quote
+Quote Post
post May 23 2020, 09:47:31
Post #6

Only Death is Real
*********
Group: Металариец
Posts: 983
Releases: 0
From: R'lyeh
On Forums: 3 years 5 months
Thanks: 1015 time(s)
Poland


Classic. (IMG:style_emoticons/default/20.gif)
From the web:

Register




Go to the top of the page
  Insert nick Quick quote
+Quote Post

Reply to this topicStart new topic
2 User(s) are reading this topic (2 Guests and 0 Anonymous Users)
0 Members:

 



- Lo-Fi Version Support form
Copyrights and abuse reports form
Time is now: 28th May 2020 - 14:04:12