Welcome Guest ( Log In | Register )

> Kaat & Longing For Depression - Sorrow Of Life [split] (2012), Depressive Black Metal/Ambient | Depressive Black Metal/Ambient
post Nov 29 2012, 20:06:32
Post #1

Правь статус, ####!111
**************
Group: Металариец
Posts: 2,291
Releases: 1011
From: Гиперборе́я
On Forums: 10 years 4 months
Thanks: 21889 time(s)
Russian Federation


(IMG:http://metalarea.org/images/audiocovers/2012_Nov/acov_tid188333_thumb.jpg)

*Artist: Kaat & Longing For Depression
*Album: Sorrow Of Life [split]
*Year: 2012
*Genre: Depressive Black Metal/Ambient | Depressive Black Metal/Ambient
*Country: Belarus (IMG:http://metalarea.org/forum/style_images/flags/Belarus.png) | Poland (IMG:http://metalarea.org/forum/style_images/flags/Poland.png)
*Format: mp3@CBR320kbps
*Size: 167MB

Tracklist:
Kaat
01. Iмгла... 10:03
02. Зямля Мой Прах... 07:56
03. Смутак... 06:05
04. Цiшыня Болю... 07:42

Longing For Depression
05. Suffering (V.I) 05:39
06. S.I.N. (V.II) ("Into The Dark" Piano Cover) 08:03
07. Last Walk (Suicide Forest) (V.I) 08:59
08. Apprehension 06:35

Kaat & Longing For Depression
09. Sorrow Of Life (Bonus Track)
******************************
Total playing time: 1:01:02

Extended info


(IMG:http://metalarea.org/images/spectrogram/2012_Nov/7cfae360de9251effb031d4971417068.png)
Input File: 02 - Kaat - Зямля Мой Прах....mp3
Channels : 2
Sample Rate : 44100
Precision : 16-bit
Duration : 00:07:56.29 = 21004477 samples = 35721.9 CDDA sectors
File Size : 19.1M
Bit Rate : 321k
Sample Encoding: MPEG audio (layer I, II or III)
Comments :
Title=Зямля Мой Прах...
Artist=Kaat
Album=Kaat & Longing For Depression - Sorrow Of Life (Split)
Tracknumber=02/09
Year=2012
Genre=Depressive Black Metal



Register


Go to the top of the page
  Insert nick Quick quote
+Quote Post
 
Start new topic
Replies (1 - 5)
post Nov 30 2012, 04:49:38
Post #2

Dark Ambient Shoujo
**********
Group: Металариец
Posts: 1,368
Releases: 2
On Forums: 12 years 3 months
Thanks: 815 time(s)
Russian Federation


Хороший сплит, понравилось.
Go to the top of the page
  Insert nick Quick quote
+Quote Post
post Jan 21 2013, 02:35:38
Post #3

Маньяк
**********
Group: Металариец
Posts: 1,414
Releases: 0
From: Рівне
On Forums: 12 years 1 month
Thanks: 151 time(s)
Ukraine


Go to the top of the page
  Insert nick Quick quote
+Quote Post
post Mar 12 2013, 05:03:38
Post #4

Восемь Литров
********
Group: Металариец
Posts: 883
Releases: 5
From: Quito
On Forums: 13 years 5 months
Thanks: 114 time(s)
Ecuador


thanks ! (IMG:style_emoticons/default/9.gif) for you my friend !


Thanks:
Go to the top of the page
  Insert nick Quick quote
+Quote Post
post Nov 26 2013, 15:19:42
Post #5

Два Литра
**
Group: Завсегдатай
Posts: 158
Releases: 0
On Forums: 10 years 11 months
Thanks: 37 time(s)
Russian Federation


LFD вообще весчь! (IMG:style_emoticons/default/9.gif) Жду еще чего-нибудь от них


Thanks:
Go to the top of the page
  Insert nick Quick quote
+Quote Post
post Dec 30 2014, 06:45:28
Post #6

Правь статус, ####!111
**************
Group: Металариец
Posts: 4,790
Releases: 1471
From: Brazil
On Forums: 9 years 2 months
Thanks: 54679 time(s)
Brazil


Register

mp3@CBR320kbps


Go to the top of the page
  Insert nick Quick quote
+Quote Post

Reply to this topicStart new topic
2 User(s) are reading this topic (2 Guests and 0 Anonymous Users)
0 Members:

 



- Lo-Fi Version Support form
Copyrights and abuse reports form
Time is now: 14th April 2021 - 13:52:51