Welcome Guest ( Log In | Register )

> Halcyon - Jerusalem (2012), Progressive/Post-Black Metal
post Dec 3 2012, 14:38:16
Post #1

Serial Uploader
Group Icon
Group: V.I.P
Posts: 37,532
Releases: 35706
From: Lithuania
On Forums: 12 years 10 months
Thanks: 431406 time(s)
Lithuania


(IMG:http://metalarea.org/images/audiocovers/2012_Dec/acov_tid188782_thumb.jpg)

*Artist: Halcyon
*Album: Jerusalem
*Year: 2012
*Genre: Progressive/Post-Black Metal
*Country: Canada (IMG:http://metalarea.org/forum/style_images/flags/Canada.png)
*Format: mp3@CBR320kbps
*Size: 111MB

Tracklist:
01. A Late Winter 07:43
02. Gulls 05:20
03. Warsaw, 1939 01:48
04. Shiloah 07:09
05. Dreams Of Spring 05:08
06. Vultures 05:30
07. Belzec, 1942 07:22
08. City Of God 08:13
******************************
Total playing time: 48:13



Extended info


(IMG:http://metalarea.org/images/spectrogram/2012_Dec/63ea991c8777058bb2749a0df23a089a.png)
Input File: Halcyon - Jerusalem - 02 Gulls.mp3
Channels : 2
Sample Rate : 44100
Precision : 16-bit
Duration : 00:05:20.24 = 14122496 samples = 24017.9 CDDA sectors
File Size : 13.0M
Bit Rate : 325k
Sample Encoding: MPEG audio (layer I, II or III)
Comments :
Title=Gulls
Artist=Halcyon
Album=Jerusalem
Tracknumber=2
Year=2012



Register


Go to the top of the page
  Insert nick Quick quote
+Quote Post
 
Start new topic
Replies (1 - 3)
post Dec 3 2012, 21:16:10
Post #2

Маньяк
**********
Group: Металариец
Posts: 1,015
Releases: 3
From: Алчевск
On Forums: 11 years 3 months
Thanks: 255 time(s)
Ukraine


очень красивая обложка.
музыка может и норм, но этот гавкающий вокал убивает все желание расслушивать.


Thanks:
(1) RENыч,
Go to the top of the page
  Insert nick Quick quote
+Quote Post
post Dec 13 2012, 15:42:38
Post #3

FOLK METAL FEVER
**************
Group: Металариец
Posts: 2,210
Releases: 6
From: Kyiv
On Forums: 13 years 5 months
Thanks: 290 time(s)
Ukraine


бомбезный релиз! очень все добротно! местами пост хака, местами пост рок, а еше немного блека. круть! и где же отзывы?
Go to the top of the page
  Insert nick Quick quote
+Quote Post
post Oct 18 2015, 15:00:58
Post #4

Illuminati
***********
Group: Металариец
Posts: 1,582
Releases: 27
On Forums: 12 years 9 months
Thanks: 2288 time(s)
Russian Federation


Register


Thanks:
Go to the top of the page
  Insert nick Quick quote
+Quote Post

Reply to this topicStart new topic
2 User(s) are reading this topic (2 Guests and 0 Anonymous Users)
0 Members:

 



- Lo-Fi Version Support form
Copyrights and abuse reports form
Time is now: 19th April 2021 - 10:04:10