Welcome Guest ( Log In | Register )

> Gortal - Deamonolith (2012), Death Metal
post Dec 10 2012, 23:06:22
Post #1

Serial Uploader
Group Icon
Group: V.I.P
Posts: 37,532
Releases: 35706
From: Lithuania
On Forums: 12 years 8 months
Thanks: 431036 time(s)
Lithuania


(IMG:http://metalarea.org/images/audiocovers/2012_Dec/acov_tid189396_thumb.jpg)

*Artist: Gortal
*Album: Deamonolith
*Year: 2012
*Genre: Death Metal
*Country: Poland (IMG:http://metalarea.org/forum/style_images/flags/Poland.png)
*Format: mp3@CBR320kbps
*Size: 88MB

Tracklist:
01. D.F.C. 05:26
02. Crimens Sollicitationis 04:14
03. Doombringer 04:04
04. Deliver Into Suffering 04:13
05. Deamonolith 04:10
06. Dreaming Of Being Dead 04:20
07. Supernal Refuse 05:18
08. Cult Of The Cloth 02:58
09. I Come In Peace 04:13
******************************
Total playing time: 38:56

(IMG:http://metalarea.org/images/myspace.png)

Extended info


(IMG:http://metalarea.org/images/spectrogram/2012_Dec/77c0b99be94b4cfc20c71950816cb28d.png)
Input File: 02 - Crimens Sollicitationis.mp3
Channels : 2
Sample Rate : 44100
Precision : 16-bit
Duration : 00:04:14.64 = 11229712 samples = 19098.1 CDDA sectors
File Size : 10.4M
Bit Rate : 325k
Sample Encoding: MPEG audio (layer I, II or III)
Comments :
Title=Crimens Sollicitationis
Artist=Gortal
Album=Deamonolith
Tracknumber=2
Year=2012
Genre=Death Metal


Register


Go to the top of the page
  Insert nick Quick quote
+Quote Post
 
Start new topic
Replies (1 - 5)
post Dec 11 2012, 03:52:30
Post #2

Up From The Grave
********
Group: Металариец
Posts: 869
Releases: 122
From: Minsk
On Forums: 11 years 7 months
Thanks: 2396 time(s)
Belarus




Go to the top of the page
  Insert nick Quick quote
+Quote Post
post Dec 11 2012, 04:14:58
Post #3

Восемь Литров
********
Group: Металариец
Posts: 807
Releases: 94
On Forums: 9 years 3 months
Thanks: 2649 time(s)
Canada


12 Mirrors / 320 kbps / 88 MB

Register


Go to the top of the page
  Insert nick Quick quote
+Quote Post
post Jan 27 2013, 21:02:28
Post #4

Empty Words
**************
Group: Металариец
Posts: 2,090
Releases: 13
From: Москва
On Forums: 11 years 6 months
Thanks: 2719 time(s)
Russian Federation


Продолжая свои упражения в омофонах, группа выдала более атмсферный по сравнению с предыдущим альбом. Если Blastphemous Sindecade был подобен раскаленному пулемёту, то в данном опусе больше места отведено мелодичности с сохранением жесткой, режущей гитары. В некоторых местах безумная соло-гитара воскрешает передо мной ноты великого Чака, а хлесткие тарелки — словно удары карающего бича пронзают стену звука. Особо нравится трек 03. Doombringer 04:04 , тк в нем есть всё.
Единственный минус на мой вкус — излишне приглушенный гроул.
Go to the top of the page
  Insert nick Quick quote
+Quote Post
post Feb 22 2021, 14:03:22
Post #5

Три Литра
***
Group: Завсегдатай
Posts: 238
Releases: 0
From: Польша
On Forums: 8 years 1 day
Thanks: 141 time(s)
Poland


Can re-up someone?
Go to the top of the page
  Insert nick Quick quote
+Quote Post
post Feb 22 2021, 19:59:19
Post #6

Правь статус, ####!111
**************
Group: Металариец
Posts: 7,266
Releases: 165
From: URUGUAY
On Forums: 14 years 5 months
Thanks: 21123 time(s)
Uruguay


320
Register


Go to the top of the page
  Insert nick Quick quote
+Quote Post

Reply to this topicStart new topic
1 User(s) are reading this topic (1 Guests and 0 Anonymous Users)
0 Members:

 



- Lo-Fi Version Support form
Copyrights and abuse reports form
Time is now: 27th February 2021 - 17:00:58