Welcome Guest ( Log In | Register )

> 

Здесь релизы с живыми прямыми ссылками на lossless

> Анальные Врата - Анальное Зондирование [single] (2012), Grind
Great_Cornholio
post Dec 12 2012, 21:47:49
Post #1

Guests team






(IMG:http://metalarea.org/images/audiocovers/2012_Dec/acov_tid189538_thumb.png)

*Artist: Анальные Врата
*Album: Анальное Зондирование [single]
*Year: 2012
*Genre: Grind
*Country: Russian Federation (IMG:http://metalarea.org/forum/style_images/flags/Russian%20Federation.png)
*Format: FLAC
*Size: 69MB

Tracklist:
01. Анальное Зондирование
02. Кшуапокалипсис
03. Адская Клоака
******************************
Total playing time: 9:35

Кшуапокалипсис

Extended info
Приглашаем вас во вторую часть увлекательного путешествия через Анальные Врата, коей является данный сингл. На этот раз мы решили немного поэкспериментировать над музыкой и вокальными мелодиями.

(IMG:http://metalarea.org/images/spectrogram/2012_Dec/c2bcd1052fab7b35171df1bc2340f7eb.png)
Input File: sample of track 2 for test.flac
Channels : 2
Sample Rate : 44100
Precision : 16-bit
Duration : 00:00:15.34 = 676552 samples = 1150.6 CDDA sectors
File Size : 1.90M
Bit Rate : 993k
Sample Encoding: 16-bit FLAC



Register


Thanks:
Go to the top of the page
  Insert nick Quick quote
+Quote Post
 
Start new topic
Replies (1 - 6)
post Dec 16 2012, 10:15:51
Post #2

brutalcesar
**************
Group: Металариец
Posts: 17,930
Releases: 67
From: Рязань
On Forums: 11 years 4 months
Thanks: 9778 time(s)
Russian Federation


Думаю вот - что лучше; название или обложка (IMG:style_emoticons/default/headcrab.png)
Go to the top of the page
  Insert nick Quick quote
+Quote Post
post Dec 16 2012, 14:54:04
Post #3

10 граммов леса
***********
Group: Металариец
Posts: 1,501
Releases: 0
On Forums: 9 years 6 months
Thanks: 893 time(s)
Germany


ЦИТАТА(cesar @ Dec 16 2012, 10:15:51) *
Думаю вот - что лучше; название или обложка (IMG:style_emoticons/default/headcrab.png)


ЦИТАТА
*Артист: Анальные Врата
*Стиль: Grind
*Страна: Russian Federation
*Формат: flac


Вот это (IMG:style_emoticons/default/crazy.gif)


Thanks:
(2) 1984, cesar,
Go to the top of the page
  Insert nick Quick quote
+Quote Post
nomade
post Dec 16 2012, 15:33:27
Post #4

Guests team






Тоже формат FLAC поразил
Go to the top of the page
  Insert nick Quick quote
+Quote Post
post Dec 16 2012, 15:44:53
Post #5

brutalcesar
**************
Group: Металариец
Posts: 17,930
Releases: 67
From: Рязань
On Forums: 11 years 4 months
Thanks: 9778 time(s)
Russian Federation


flac

*ля, а я и не видел...
Go to the top of the page
  Insert nick Quick quote
+Quote Post
post Jul 11 2013, 02:29:48
Post #6

\m/
Group Icon
Group: S-moderation team
Posts: 7,789
Releases: 19
From: Петропавловск-Камчатский
On Forums: 10 years 11 months
Thanks: 7602 time(s)
Russian Federation


Кто бы мог подумать? Что за отвратительной обложкой, таким же названиями песен и *Артист, вокалом - "на_унитазЕ_сижу_газы_испускаю_тутже_записываю - за вокал сойдёт", лежит очень и очень не плохая музыкальная составляющая. Здесь чувствуется у ребят потенциал. Я бы посоветовал найти нового вокалиста, и попробовать себя на поприще БМ сцены, а-ла Svarttjern.
Go to the top of the page
  Insert nick Quick quote
+Quote Post
post Jul 11 2013, 05:40:01
Post #7

Социопат.Маргинал. Мизантроп.Нигилист. Перверзный нарциссист.
**************
Group: Металариец
Posts: 5,566
Releases: 667
From: Город-герой Ленинград
On Forums: 9 years 3 months
Thanks: 6400 time(s)
Russian Federation


Не,я могу пережить название и фото с таблойдов,но каждый раз иметь под рукой "болванку" для прослушивания грайнда,это слишком (IMG:style_emoticons/default/1488.gif)
Go to the top of the page
  Insert nick Quick quote
+Quote Post

Reply to this topicStart new topic
2 User(s) are reading this topic (2 Guests and 0 Anonymous Users)
0 Members:

 



- Lo-Fi Version Support form
Copyrights and abuse reports form
Time is now: 3rd June 2020 - 05:17:31