Welcome Guest ( Log In | Register )

> Atheria - Echo From Another Kingdom (2012), Ambient Black Metal
post Dec 15 2012, 12:53:57
Post #1

Правь статус, ####!111
**************
Group: Металариец
Posts: 2,277
Releases: 1014
From: Гиперборе́я
On Forums: 7 years 10 months
Thanks: 21356 time(s)
Russian Federation


(IMG:http://metalarea.org/images/audiocovers/2012_Dec/acov_tid189730_thumb.jpg)

*Artist: Atheria
*Album: Echo From Another Kingdom
*Year: 2012
*Genre: Ambient Black Metal
*Country: Sweden (IMG:http://metalarea.org/forum/style_images/flags/Sweden.png)
*Format: mp3@CBR320kbps
*Size: 52MB

Tracklist:
01.Hypervorea 04:13
02.Bridge To The Castle 01:17
03.Orama 03:18
04.Wandering Below The Astral LLight 04:48
05.A Desolate Journey 04:40
06.Reaching The Immortal Kingdom Of Death 03:33
******************************
Total playing time: 21:49

Extended info


(IMG:http://metalarea.org/images/spectrogram/2012_Dec/329cbd7438dd941aed47166f58e6cdc5.png)
Input File: 03 - Orama.mp3
Channels : 2
Sample Rate : 44100
Precision : 16-bit
Duration : 00:03:18.46 = 8751866 samples = 14884.1 CDDA sectors
File Size : 7.95M
Bit Rate : 320k
Sample Encoding: MPEG audio (layer I, II or III)
Comments :
Title=Orama
Artist=Atheria
Album=Echo From Another Kingdom
Tracknumber=03/06
Year=2012
Genre=Ambient Black Metal



Register


Go to the top of the page
  Insert nick Quick quote
+Quote Post
 
Start new topic
Replies (1 - 4)
post Dec 15 2012, 13:25:21
Post #2

sic
***********
Group: Металариец
Posts: 1,606
Releases: 9
From: Волынь - земля родная, сейчас на Львовщине
On Forums: 11 years 2 months
Thanks: 826 time(s)
Ukraine


Atheria - A Desolate Journey


Go to the top of the page
  Insert nick Quick quote
+Quote Post
post Dec 29 2012, 13:26:30
Post #3

Два Литра
**
Group: Завсегдатай
Posts: 140
Releases: 0
From: Москва
On Forums: 9 years 4 months
Thanks: 63 time(s)
Russian Federation


Крайне приятная вещь, спасибо (IMG:style_emoticons/default/smile1.gif)
Go to the top of the page
  Insert nick Quick quote
+Quote Post
post Jan 5 2013, 17:39:36
Post #4

Мегаманьяк
***********
Group: Металариец
Posts: 1,872
Releases: 15
On Forums: 7 years 9 months
Thanks: 4488 time(s)
Unknown


Есть приятные моменты, но в остальном уж очень синтетично.
Go to the top of the page
  Insert nick Quick quote
+Quote Post
post Aug 30 2017, 02:52:08
Post #5

Правь статус, ####!111
**************
Group: Металариец
Posts: 3,298
Releases: 643
From: Brazil
On Forums: 6 years 7 months
Thanks: 25560 time(s)
Brazil


Register

mp3@CBR320kbps
Go to the top of the page
  Insert nick Quick quote
+Quote Post

Reply to this topicStart new topic
1 User(s) are reading this topic (1 Guests and 0 Anonymous Users)
0 Members:

 



- Lo-Fi Version Support form
Copyrights and abuse reports form
Time is now: 21st September 2018 - 22:36:06