Welcome Guest ( Log In | Register )

> Enthroned - Thy Flesh Consumed (1996), Death Metal
post Dec 22 2012, 01:54:25
Post #1

Подвал
**************
Group: Металариец
Posts: 13,596
Releases: 7705
From: Far East (Khabarovsk)
On Forums: 10 years 7 months
Thanks: 74480 time(s)
Russian Federation


(IMG:http://metalarea.org/images/audiocovers/2012_Dec/acov_tid190210_thumb.jpg)

*Artist: Enthroned
*Album: Thy Flesh Consumed
*Year: 1996
*Genre: Death Metal
*Country: United States (IMG:http://metalarea.org/forum/style_images/flags/United%20States.png)
*Format: mp3@CBR320kbps
*Size: 108MB

Tracklist:
1. Liquefied 04:56
2. Injection 04:59
3. Sculptured Destruction 04:33
4. Crimson Wings 03:16
5. Insect Caress 04:47
6. Immortal Hate 03:59
7. Gears 04:40
8. Blood Storm 03:37
9. Lord Of Worms 04:43
10. Absence Of Life 05:11
11. Purple Haze (J.Hendrix Cover) 05:36
******************************
Total playing time: 50:17

Extended info
Californian band later turned into Psypheria.
Tape RIP.


(IMG:http://metalarea.org/images/spectrogram/2012_Dec/7f3eec15d3bb923214fe423b9eb3693a.png)
Input File: 01-Liquified.mp3
Channels : 2
Sample Rate : 44100
Precision : 16-bit
Duration : 00:04:56.44 = 13073004 samples = 22233 CDDA sectors
File Size : 11.9M
Bit Rate : 320k
Sample Encoding: MPEG audio (layer I, II or III)



Register


Go to the top of the page
  Insert nick Quick quote
+Quote Post
 
Start new topic
Replies (1 - 5)
post Mar 24 2016, 09:08:24
Post #2

Сталин придёт за тобой...
***********
Group: Металариец
Posts: 1,649
Releases: 0
From: Беларусь, Минск
On Forums: 12 years 2 months
Thanks: 784 time(s)
Belarus


Это очень хорошая музыка, мало такого. Ранний Gorguts в том же духе.


Thanks:
(1) Aresson,
Go to the top of the page
  Insert nick Quick quote
+Quote Post
post Dec 21 2016, 22:09:46
Post #3

Правь статус, ####!111
**************
Group: Металариец
Posts: 4,259
Releases: 0
From: Киев
On Forums: 11 years 4 months
Thanks: 2954 time(s)
Ukraine


Could someone re-upload? / Нельзя ли перезалить?
Go to the top of the page
  Insert nick Quick quote
+Quote Post
post Dec 21 2016, 22:18:47
Post #4

Going home. Flying high.
**************
Group: Металариец
Posts: 12,897
Releases: 0
From: The Land of Shadows
On Forums: 13 years 1 month
Thanks: 21179 time(s)
Russian Federation


на дарке всё есть:
Register


Go to the top of the page
  Insert nick Quick quote
+Quote Post
post Dec 21 2016, 22:21:07
Post #5

Правь статус, ####!111
**************
Group: Металариец
Posts: 4,259
Releases: 0
From: Киев
On Forums: 11 years 4 months
Thanks: 2954 time(s)
Ukraine


ЦИТАТА(sperminator @ Dec 21 2016, 23:18:47) *
на дарке всё есть:


Спасибо. Мне их продолжение - Psypheria - больно хорошо зашли. Точнее, второй их альбом. Хотя первый тоже хорош.


Thanks:
Go to the top of the page
  Insert nick Quick quote
+Quote Post
post Dec 22 2016, 00:34:09
Post #6

Going home. Flying high.
**************
Group: Металариец
Posts: 12,897
Releases: 0
From: The Land of Shadows
On Forums: 13 years 1 month
Thanks: 21179 time(s)
Russian Federation


ой, а я даже и не подозревал, что это они (IMG:style_emoticons/default/1488.gif)
Go to the top of the page
  Insert nick Quick quote
+Quote Post

Reply to this topicStart new topic
2 User(s) are reading this topic (2 Guests and 0 Anonymous Users)
0 Members:

 



- Lo-Fi Version Support form
Copyrights and abuse reports form
Time is now: 20th September 2019 - 08:24:41