Welcome Guest ( Log In | Register )

> Voices Of Decay - Overcome (2010), Melodic Death/Black Metal
post Dec 24 2012, 12:46:49
Post #1

Serial Uploader
Group Icon
Group: V.I.P
Posts: 34,367
Releases: 32594
From: Lithuania
On Forums: 10 years 9 months
Thanks: 371835 time(s)
Lithuania


(IMG:http://metalarea.org/images/audiocovers/2012_Dec/acov_tid190405_thumb.jpg)

*Artist: Voices Of Decay
*Album: Overcome
*Year: 2010
*Genre: Melodic Death/Black Metal
*Country: Italy (IMG:http://metalarea.org/forum/style_images/flags/Italy.png)
*Format: mp3@CBR320kbps
*Size: 104MB

Tracklist:
01. Dear Mortal Man 04:57
02. Superficial 05:20
03. Rising Tide 04:48
04. Who 04:42
05. Finger On The Trigger 04:14
06. Energy 04:18
07. The Picture 04:51
08. Higher Faster Further 04:32
09. Kings 04:19
10. Time Is Running Out 05:30
11. Innocence 05:04
******************************
Total playing time: 52:35

(IMG:http://metalarea.org/images/myspace.png)

Extended info


(IMG:http://metalarea.org/images/spectrogram/2012_Dec/d47ae1b6dea2dde11e41c779db0360f8.png)
Input File: 02 - Superficial.mp3
Channels : 2
Sample Rate : 44100
Precision : 16-bit
Duration : 00:05:20.53 = 14135505 samples = 24040 CDDA sectors
File Size : 12.8M
Bit Rate : 320k
Sample Encoding: MPEG audio (layer I, II or III)
Comments :
Title=Superficial
Artist=Voices Of Decay
Album=Overcome
Tracknumber=2
Year=2010



Register


Go to the top of the page
  Insert nick Quick quote
+Quote Post
 
Start new topic
Replies (1 - 5)
post Dec 24 2012, 14:40:00
Post #2

Четыре Литра
****
Group: Металариец
Posts: 343
Releases: 0
From: Murmansk
On Forums: 9 years 4 months
Thanks: 95 time(s)
Russian Federation


Ух ты, космос порадовал! Спасибо,качаем. Всё на месте и просто класс, по заявленным жанрам!
Go to the top of the page
  Insert nick Quick quote
+Quote Post
post Dec 24 2012, 16:48:02
Post #3

Пять Литров
*****
Group: Металариец
Posts: 497
Releases: 7
From: Kimry, Tver Region
On Forums: 12 years 1 month
Thanks: 1292 time(s)
Russian Federation


Очень неплохой музончик! И даже чистый вокал в меру и не напрягает особо! А еще - любимые мной со времен альбома "Kings Of Metal" MANOWAR хоровые выкрики и скандирования! Супер!
Go to the top of the page
  Insert nick Quick quote
+Quote Post
post Dec 24 2012, 18:47:30
Post #4

Crush The Enemies
**************
Group: Металариец
Posts: 4,184
Releases: 0
From: Moscow
On Forums: 9 years 6 months
Thanks: 2289 time(s)
Russian Federation


Блэк здесь даже рядом не валялся и не пробегал...а так,хороший,жирный саунд,гроул,как нельзя лучше подходящий для мелодик дэта. Вот вставки слащаво-мерзкого войса удручают и портят правильно-дэтовое восприятие!
P.S. necroscum-чик дорогой,в тэгах блэк убери,хоть он и по тупому значится на архивах (может где-то в начале своего пути группа и играла дэт/блэк,но в этом его точно нет)


Thanks:
(1) Ironcast,
Go to the top of the page
  Insert nick Quick quote
+Quote Post
post Jan 11 2014, 12:36:38    Сейчас играет: Voices Of Decay – Funeral of My Soul
Post #5

Group: Дух
Posts: 1
Releases: 0
On Forums: 5 years 6 months
Thanks: 0 time(s)
Russian Federation


QUOTE(defamer666 @ Dec 24 2012, 18:47:30) *
Блэк здесь даже рядом не валялся и не пробегал...а так,хороший,жирный саунд,гроул,как нельзя лучше подходящий для мелодик дэта. Вот вставки слащаво-мерзкого войса удручают и портят правильно-дэтовое восприятие!
P.S. necroscum-чик дорогой,в тэгах блэк убери,хоть он и по тупому значится на архивах (может где-то в начале своего пути группа и играла дэт/блэк,но в этом его точно нет)

На первом альбоме у них был Symphonic Black, на этом - Melodic Death
Go to the top of the page
  Insert nick Quick quote
+Quote Post
post Mar 15 2019, 13:34:30
Post #6

Маньяк
**********
Group: Металариец
Posts: 1,117
Releases: 0
On Forums: 8 months 2 weeks
Thanks: 589 time(s)
Russian Federation


109 mb/320 kbps
Register
Go to the top of the page
  Insert nick Quick quote
+Quote Post

Reply to this topicStart new topic
2 User(s) are reading this topic (2 Guests and 0 Anonymous Users)
0 Members:

 



- Lo-Fi Version Support form
Copyrights and abuse reports form
Time is now: 23rd March 2019 - 04:05:42