Welcome Guest ( Log In | Register )

> Munruthel - CREEDamage (2012), Atmospheric/Pagan/Folk Black Metal
post Dec 29 2012, 16:15:06
Post #1

YGG
***********
Group: Металариец
Posts: 1,764
Releases: 33
From: Харьков
On Forums: 13 years 2 months
Thanks: 3120 time(s)
Ukraine


(IMG:http://metalarea.org/images/audiocovers/2012_Dec/acov_tid190708_thumb.jpg)

*Artist: Munruthel
*Album: CREEDamage
*Year: 2012
*Genre: Atmospheric/Pagan/Folk Black Metal
*Country: Ukraine (IMG:http://metalarea.org/forum/style_images/flags/Ukraine.png)
*Format: mp3@CBR320kbps
*Size: 136MB

Tracklist:
1. Ardent Dance of War’s God 02:27
2. Rolls of Thunder from Fiery Skies 05:55
3. CREEDamage 07:14
4. The Mown Dawns Lie on the Ground 05:13
5. The Age of Heroes 05:00
6. The Lake (Bathory cover) 06:44
7. The Eyes of Abyss 05:16
8. Карпатський Щит [Carpathians’ Shield] 06:07
9. Krada I: The Blood 07:39
10. Krada II: The Surya 04:06
11. Krada III: The Fire 04:11
******************************
Total playing time: 59:52

Extended info
Англоязычная версия нового альбома "ВЕРОломство"

(IMG:http://metalarea.org/images/spectrogram/2012_Dec/039b95fb84b774d114d5292667bcc5b4.png)
Input File: 3. CREEDamage.mp3
Channels : 2
Sample Rate : 44100
Precision : 16-bit
Duration : 00:07:15.04 = 19185352 samples = 32628.1 CDDA sectors
File Size : 17.4M
Bit Rate : 320k
Sample Encoding: MPEG audio (layer I, II or III)



Register


Go to the top of the page
  Insert nick Quick quote
+Quote Post
 
Start new topic
Replies (1 - 8)
post Dec 29 2012, 18:11:20
Post #2

Три Литра
***
Group: Завсегдатай
Posts: 297
Releases: 0
On Forums: 13 years 1 month
Thanks: 98 time(s)
Russian Federation


Даже и слушать не стану. Как и последний продажный приштампованный на английском "Корпиклаани".Да и славянский исходник Мунрутеля по расслушке оказался так себе. Дух иссяк и, по-моему, окончательно...
Go to the top of the page
  Insert nick Quick quote
+Quote Post
post Dec 30 2012, 05:42:11
Post #3

Три Литра
***
Group: Завсегдатай
Posts: 218
Releases: 0
From: Пермь
On Forums: 12 years 3 months
Thanks: 21 time(s)
Russian Federation


Славянский исходник очень неплох, я бы сказал, The Eyes of Abyss особенно доставляет, но тексты примитивны до ужаса, поэтому, может на англицком оно и лучше...
Go to the top of the page
  Insert nick Quick quote
+Quote Post
post Dec 30 2012, 09:29:06
Post #4

Necromancer
Group Icon
Group: Curation team
Posts: 11,025
Releases: 271
From: Зеленоград
On Forums: 13 years 8 months
Thanks: 8865 time(s)
Russian Federation


Ну, что же, действительно раба хорошая. Только вот, зачем надо было перекладывать оригинальный материал альбома на английский язык то? Может для расширения круга поклонников, может для коммерческого финта, а может просто для разнообразия... Кто знает? (IMG:style_emoticons/default/hmm.gif)
Go to the top of the page
  Insert nick Quick quote
+Quote Post
post Dec 30 2012, 16:43:02
Post #5

Литр
*
Group: Подсевший
Posts: 62
Releases: 0
From: Киев
On Forums: 8 years 11 months
Thanks: 14 time(s)
Ukraine


good album (IMG:style_emoticons/default/smile1.gif)
Go to the top of the page
  Insert nick Quick quote
+Quote Post
post Dec 30 2012, 23:11:19
Post #6

Ёлд ХеллоВяйне
Group Icon
Group: V.I.P
Posts: 29,774
Releases: 137
From: Питер
On Forums: 13 years 7 months
Thanks: 17673 time(s)
Russian Federation


QUOTE(Fess @ 30th December 2012 - 12:29:06) *
действительно раба хорошая


(IMG:style_emoticons/default/hmm.gif)
Go to the top of the page
  Insert nick Quick quote
+Quote Post
post Dec 31 2012, 13:19:50
Post #7

Маньяк
**********
Group: Металариец
Posts: 1,108
Releases: 0
On Forums: 9 years 3 weeks
Thanks: 516 time(s)
Unknown


QUOTE(Fess @ Dec 30 2012, 08:29:06) *
Ну, что же, действительно раба хорошая. Только вот, зачем надо было перекладывать оригинальный материал альбома на английский язык то? Может для расширения круга поклонников, может для коммерческого финта, а может просто для разнообразия... Кто знает? (IMG:style_emoticons/default/hmm.gif)


The lyrics in English aren't good either....as an English speaker i'd rather get the Russian version. Maybe if you don't understand what's being sung the album sounds better?
Go to the top of the page
  Insert nick Quick quote
+Quote Post
post Jan 25 2013, 02:09:56
Post #8

Маньяк
**********
Group: Металариец
Posts: 1,414
Releases: 0
From: Рівне
On Forums: 11 years 2 months
Thanks: 145 time(s)
Ukraine


Go to the top of the page
  Insert nick Quick quote
+Quote Post
post Nov 16 2019, 20:07:39
Post #9

Восемь Литров
********
Group: Металариец
Posts: 830
Releases: 0
On Forums: 11 years 3 months
Thanks: 9 time(s)
Netherlands


Anybody got a working link, please?
Go to the top of the page
  Insert nick Quick quote
+Quote Post

Reply to this topicStart new topic
1 User(s) are reading this topic (1 Guests and 0 Anonymous Users)
0 Members:

 



- Lo-Fi Version Support form
Copyrights and abuse reports form
Time is now: 6th June 2020 - 06:37:45