Welcome Guest ( Log In | Register )

> Vassafor - Elegy Of The Archeonaut [best of/compilation] (2012), Black/Death Metal
post Jan 2 2013, 06:29:27
Post #1

Аннигилятор пивА
Group Icon
Group: V.I.P
Posts: 48,907
Releases: 14979
From: Koenigsberg - TILZIT
On Forums: 12 years 3 months
Thanks: 327871 time(s)
Russian Federation


(IMG:http://metalarea.org/images/audiocovers/2013_Jan/acov_tid190964_thumb.jpg)

*Artist: Vassafor
*Album: Elegy Of The Archeonaut [best of/compilation]
*Year: 2012
*Genre: Black/Death Metal
*Country: New Zealand (IMG:http://metalarea.org/forum/style_images/flags/New%20Zealand.png)
*Format: mp3@CBR320kbps
*Size: 172MB

Tracklist:
01. Craft of Dissolution (2006 Release) 06:40
02. Servitude 03:18
03. Son of the Damned (Bathory cover) 02:45
04. Black Winds Victoryant 12:49
05. Dreadnaught 09:42
06. Dorn Meiner Allmacht (Bethlehem cover) 08:15
07. Bloodthorn 07:51
08. Vassafor 11:40
09. Archeonaut's Return (2007 Rehearsal) 14:46
10. Beast of Damnation (Beherit cover) 03:47
******************************
Total playing time: 1:21:33



Extended info
BP - Drums (Malevolence)
VK - Guitars, Vocals, Bass (Blasphemy, Diocletian, Ulcerate, Graymalkin)

Vassafor was vomited forth from the Southern Abyss in the mid 90s, excreting musical venom within a framework of dark, epic Black Metal.

Elegy of the Archeonaut is a selected look at the history of Vassafor, combining tracks from previous releases alongside unreleased rehearsal and studio recordings.

(IMG:http://metalarea.org/images/spectrogram/2013_Jan/70e491aa1bc02260d6fef9398d775085.png)
Input File: 03. Son of the Damned (Bathory cover) (Southern Vassaforian Hell).mp3
Channels : 2
Sample Rate : 44100
Precision : 16-bit
Duration : 00:02:47.07 = 7367831 samples = 12530.3 CDDA sectors
File Size : 6.68M
Bit Rate : 320k
Sample Encoding: MPEG audio (layer I, II or III)
Comments :
Title=Son of the Damned (Bathory cover) (Southern Vassaforian Hell)
Artist=Vassafor
Album=Elegy of the Archeonaut
Tracknumber=03
Year=2012
Genre=Epic Black/Death Metal



Register


Go to the top of the page
  Insert nick Quick quote
+Quote Post
 
Start new topic
Replies (1 - 3)
post Jan 25 2013, 15:06:33
Post #2

Маньяк
**********
Group: Металариец
Posts: 1,414
Releases: 0
From: Рівне
On Forums: 9 years 6 months
Thanks: 128 time(s)
Ukraine


Go to the top of the page
  Insert nick Quick quote
+Quote Post
post Oct 12 2017, 19:50:30
Post #3

Два Литра
**
Group: Завсегдатай
Posts: 134
Releases: 0
On Forums: 6 years 10 months
Thanks: 9 time(s)
Belarus


Перезалейте пожалуйста
Go to the top of the page
  Insert nick Quick quote
+Quote Post
post Oct 13 2017, 18:15:01
Post #4

Going home. Flying high.
**************
Group: Металариец
Posts: 12,275
Releases: 0
From: The Land of Shadows
On Forums: 12 years 1 month
Thanks: 17514 time(s)
Russian Federation


from the web
Register


Thanks:
Go to the top of the page
  Insert nick Quick quote
+Quote Post

Reply to this topicStart new topic
1 User(s) are reading this topic (1 Guests and 0 Anonymous Users)
0 Members:

 



- Lo-Fi Version Support form
Copyrights and abuse reports form
Time is now: 24th September 2018 - 12:09:00