Welcome Guest ( Log In | Register )

> City Of The Lost - At The Edge (2013), Post-Metal
post Jan 8 2013, 20:49:09
Post #1

Правь статус, ####!111
**************
Group: Металариец
Posts: 2,291
Releases: 1011
From: Гиперборе́я
On Forums: 10 years 4 months
Thanks: 21889 time(s)
Russian Federation


(IMG:http://metalarea.org/images/audiocovers/2013_Jan/acov_tid191410_thumb.png)

*Artist: City Of The Lost
*Album: At The Edge
*Year: 2013
*Genre: Post-Metal
*Country: Russian Federation (IMG:http://metalarea.org/forum/style_images/flags/Russian%20Federation.png)
*Format: mp3@CBR320kbps
*Size: 76MB

Tracklist:
01. A Coming Storm 04:10
02. The Nightingale 06:20
03. Omen, Pt.1 (Temple Keepers) 04:31
04. Back To The Future 04:03
05. Rise As One 02:58
06. 86 Days Of Despair 05:49
07. Basilisk 05:31
08. Omen, Pt.2 (The Stargazer) 05:16
******************************
Total playing time: 38:38

Extended info


(IMG:http://metalarea.org/images/spectrogram/2013_Jan/585ad825692ec012d7c72bc90d2a028d.png)
Input File: 01 - A Coming Storm.mp3
Channels : 2
Sample Rate : 44100
Precision : 16-bit
Duration : 00:04:10.78 = 11059310 samples = 18808.4 CDDA sectors
File Size : 10.1M
Bit Rate : 322k
Sample Encoding: MPEG audio (layer I, II or III)
Comments :
Title=A Coming Storm
Artist=City Of The Lost
Album=At The Edge
Tracknumber=01/08
Year=2013
Genre=Post-Metal



Register


Go to the top of the page
  Insert nick Quick quote
+Quote Post
 
Start new topic
Replies (1 - 6)
post Jan 9 2013, 17:55:16
Post #2

Четыре Литра
****
Group: Металариец
Posts: 361
Releases: 22
On Forums: 12 years 1 month
Thanks: 497 time(s)
United Kingdom



http://vk.com/club19720506


Thanks:
Go to the top of the page
  Insert nick Quick quote
+Quote Post
post Jan 9 2013, 19:59:37
Post #3

Статус-хиатус
**************
Group: Металариец
Posts: 2,642
Releases: 7
From: гости
On Forums: 13 years 7 months
Thanks: 1102 time(s)
Ukraine


На первом месте всё же пост-рок.
Go to the top of the page
  Insert nick Quick quote
+Quote Post
post Jan 9 2013, 23:47:55
Post #4

Dark Ambient Shoujo
**********
Group: Металариец
Posts: 1,368
Releases: 2
On Forums: 12 years 3 months
Thanks: 815 time(s)
Russian Federation


Еще с прошлого альбома запомнились, очень годно!


Thanks:
Go to the top of the page
  Insert nick Quick quote
+Quote Post
post Jan 10 2013, 19:32:47
Post #5

Два Литра
**
Group: Завсегдатай
Posts: 158
Releases: 0
On Forums: 10 years 11 months
Thanks: 37 time(s)
Russian Federation


первое творение запомнилось. Помню пафосные речи в начале и конце альбома.)
А этот альбом еще лучше будет. (IMG:style_emoticons/default/smile1.gif)


Thanks:
Go to the top of the page
  Insert nick Quick quote
+Quote Post
post Jan 10 2013, 19:37:10
Post #6

PEACEDEATH
**************
Group: Металариец
Posts: 7,207
Releases: 62
From: РОССИЯ
On Forums: 11 years 4 months
Thanks: 9859 time(s)
Turkey


Пост митол, как постное блюдо. (IMG:style_emoticons/default/smile4.gif)


Thanks:
Go to the top of the page
  Insert nick Quick quote
+Quote Post
post Jan 29 2013, 18:50:03
Post #7

Кожаный ублюдок
**************
Group: Металариец
Posts: 3,337
Releases: 6
From: Алчевск (early) Некросибирск (now)
On Forums: 11 years 11 months
Thanks: 2222 time(s)
Russian Federation


Вот даже и описать трудно почему я залип на этом альбоме, а как-то нужно все это аргументировать. Скорее всего дело в довольно интересном чередовании настроя в этом замечательном опусе россиян. Иногда это меланхолия пост-рока, но она уже через несколько секунд может сменится задором какого-то рок-н-ролла. В общем довольно затягивающее действо, которое определенно заслуживает внимательного погружения. Замечательно и не скучно.


Thanks:
Go to the top of the page
  Insert nick Quick quote
+Quote Post

Reply to this topicStart new topic
2 User(s) are reading this topic (2 Guests and 0 Anonymous Users)
0 Members:

 



- Lo-Fi Version Support form
Copyrights and abuse reports form
Time is now: 14th April 2021 - 13:56:44