Welcome Guest ( Log In | Register )

> Kawir & Nergal & Embrace Of Thorns & Soulskinner - Emissaries Of A Profane Advent [split] (2012), Pagan/Black Metal | Black Metal | Black/Death Metal | Death Metal
post Jan 21 2013, 05:20:25
Post #1

Serial Uploader
Group Icon
Group: V.I.P
Posts: 36,795
Releases: 34982
From: Lithuania
On Forums: 11 years 7 months
Thanks: 410804 time(s)
Lithuania


(IMG:http://metalarea.org/images/audiocovers/2013_Jan/acov_tid192295_thumb.jpg)

*Artist: Kawir & Nergal & Embrace Of Thorns & Soulskinner
*Album: Emissaries Of A Profane Advent[split]
*Year: 2012
*Genre: Pagan/Black Metal | Black Metal | Black/Death Metal | Death Metal
*Country: Greece (IMG:http://metalarea.org/forum/style_images/flags/Greece.png) | Greece (IMG:http://metalarea.org/forum/style_images/flags/Greece.png) | Greece (IMG:http://metalarea.org/forum/style_images/flags/Greece.png) | Greece (IMG:http://metalarea.org/forum/style_images/flags/Greece.png)
*Format: mp3@CBR320kbps
*Size: 54MB

Tracklist:
Kawir:
01. Prometheus 06:42
Nergal:
02. Flegethon 04:49
Embrace Of Thorns:
03. Dismal Augur Of Hierophant Mass 04:52
Soulskinner:
04. 44 Caliber Killer 04:45
******************************
Total playing time: 21:08

(IMG:http://metalarea.org/images/myspace.png)
(IMG:http://metalarea.org/images/myspace.png)
(IMG:http://metalarea.org/images/myspace.png)
(IMG:http://metalarea.org/images/myspace.png)

Extended info


(IMG:http://metalarea.org/images/spectrogram/2013_Jan/fe961fd3271560d73e2b7c02e3421dd7.png)
Input File: 04. Soulskinner - 44 Caliber Killer.mp3
Channels : 2
Sample Rate : 44100
Precision : 16-bit
Duration : 00:04:45.73 = 12600517 samples = 21429.5 CDDA sectors
File Size : 11.4M
Bit Rate : 320k
Sample Encoding: MPEG audio (layer I, II or III)
Comments :
Title=B2.Soulskinner - 44 Caliber Killer.mp3
Artist=Soulskinner
Album=Emissaries Of A Profane
Tracknumber=4
Year=2012
Genre=Blues



Register

Register


Go to the top of the page
  Insert nick Quick quote
+Quote Post
 
Start new topic
Replies (1 - 3)
post Jan 21 2013, 05:30:34
Post #2

the faceless one
Group Icon
Group: S-moderation team
Posts: 9,247
Releases: 1898
On Forums: 11 years 5 months
Thanks: 112711 time(s)
Russian Federation


Added links by drbutcher


Thanks:
Go to the top of the page
  Insert nick Quick quote
+Quote Post
inatas_eva_89
post Jan 21 2013, 17:40:09
Post #3

Guests team






Кайф! не глядя понял откуда рип) Но всё равно благодарю!
Go to the top of the page
  Insert nick Quick quote
+Quote Post
post Sep 7 2017, 17:28:04
Post #4

Правь статус, ####!111
**************
Group: Металариец
Posts: 6,832
Releases: 0
From: Москва
On Forums: 10 years 5 months
Thanks: 13526 time(s)
Russian Federation


Register
320


Go to the top of the page
  Insert nick Quick quote
+Quote Post

Reply to this topicStart new topic
1 User(s) are reading this topic (1 Guests and 0 Anonymous Users)
0 Members:

 



- Lo-Fi Version Support form
Copyrights and abuse reports form
Time is now: 20th January 2020 - 01:11:14