Welcome Guest ( Log In | Register )

> И неформату есть предел.

Рэп/хип-хоп/шансон/поп удаляются. Для них есть свои порталы.

> Rage Against The Machine - Rage Against The Machine (XX 20th Anniversary Edition) (2012), Rap Metal
post Jan 22 2013, 19:11:16
Post #1

Два Литра
**
Group: Завсегдатай
Posts: 196
Releases: 21
From: Kaunas
On Forums: 15 years 7 months
Thanks: 612 time(s)
Lithuania


(IMG:http://metalarea.org/images/audiocovers/2013_Jan/acov_tid192426_thumb.jpg)

*Artist: Rage Against The Machine
*Album: Rage Against The Machine (XX 20th Anniversary Edition)
*Year: 2012
*Genre: Rap Metal
*Country: United States (IMG:http://metalarea.org/forum/style_images/flags/United%20States.png)
*Format: mp3@CBR320kbps
*Size: 286MB

Tracklist:
Disc 1:
1. Bombtrack [remastered] 4:04
2. Killing In The Name [remastered] 5:13
3. Take The Power Back [remastered] 5:37
4. Settle For Nothing [remastered] 4:48
5. Bullet In The Head [remastered] 5:09
6. Know Your Enemy [remastered] 4:55
7. Wake Up [remastered] 6:03
8. Fistful Of Steel [remastered] 5:30
9. Township Rebellion [remastered] 5:24
10. Freedom Bonus Tracks (b-sides) [remastered] 6:08
11. Bombtrack (live, taken from Bombtrack single) 5:56
12. Bullet in the Head (live, taken from Bullet in the Head single) 5:44
13. Take The Power Back (live, taken from Freedom single) 6:09
Disc 2:
14. Bombtrack 4:05
15. Take The Power Back 5:40
16. Bullet in the Head 5:09
17. Darkness of Greed 3:40
18. Clear the Lane 3:48
19. Township Rebellion 4:19
20. Know Your Enemy 4:19
21. Mindset's A Threat 3:56
22. Killing In The Name 6:28
23. Auto Logic 4:07
24. The Narrows 4:35
25. Freedom 5:40
******************************
Total playing time: 2:06:26

Extended info
The band announced on October 9 via their Facebook page that they would be releasing a special 20th anniversary box set to commemorate the group's debut album. The full box set contains never-before-released concert material, including the band's 2010 Finsbury Park show and footage from early in their career, as well as a digitally-remastered version of the album, b-sides and the original demo tape (on disc for the first time). The collection was released on November 27.

(IMG:http://metalarea.org/images/spectrogram/2013_Jan/e289b8e002017222a9c6225bb51540d3.png)
Input File: 01-Bombtrack [Remastered].mp3
Channels : 2
Sample Rate : 44100
Precision : 16-bit
Duration : 00:04:03.45 = 10736277 samples = 18259 CDDA sectors
File Size : 9.85M
Bit Rate : 324k
Sample Encoding: MPEG audio (layer I, II or III)
Comments :
Title=Bombtrack [Remastered]
Artist=Rage Against The Machine
Album=Rage Against The Machine - XX (20th Anniversary Edition)
Tracknumber=1/13
Year=2012
Genre=Alternative
Discnumber=1/1


Register


Go to the top of the page
  Insert nick Quick quote
+Quote Post
 
Start new topic
Replies (1 - 4)
post Jan 23 2013, 00:01:45
Post #2

Шесть Литров
******
Group: Металариец
Posts: 693
Releases: 1
From: Россия, Санкт-Петербург
On Forums: 14 years 2 months
Thanks: 95 time(s)
Russian Federation


Просто великолепный альбом (IMG:style_emoticons/default/pray.gif) И как ремастер, чувствуется разница?


Thanks:
(1) Emm Human,
Go to the top of the page
  Insert nick Quick quote
+Quote Post
post Jan 25 2013, 05:51:01
Post #3

i listen to black metal
**************
Group: Металариец
Posts: 3,360
Releases: 144
From: Москва
On Forums: 15 years 7 months
Thanks: 2451 time(s)
Russian Federation


в душе стало хорошо


Thanks:
Go to the top of the page
  Insert nick Quick quote
+Quote Post
post Jan 23 2022, 14:33:48
Post #4

Трезвый мастер
Group Icon
Group: Moderation team
Posts: 4,774
Releases: 0
On Forums: 12 years 1 month
Thanks: 2524 time(s)
Russian Federation


Редкий случай когда в релизе музыкальная составляющая и обложка были одинаково сильны... а учитывая, что это самый сильный альбом команды...


Thanks:
(1) WOLAND,
Go to the top of the page
  Insert nick Quick quote
+Quote Post
post Jan 23 2022, 15:36:22
Post #5
BAN
Banned till
Aug 17 2022, 15:38:53



Удивительная банда. Во дали.
Go to the top of the page
  Insert nick Quick quote
+Quote Post

Reply to this topicStart new topic
1 User(s) are reading this topic (1 Guests and 0 Anonymous Users)
0 Members:

 



- Lo-Fi Version Support form
Copyrights and abuse reports form
Time is now: 17th August 2022 - 09:27:23