Welcome Guest ( Log In | Register )

> Archetype - Dawning (2002), Progressive/Power Metal (D4)
post Jan 23 2013, 10:29:53
Post #1

Serial Uploader
Group Icon
Group: V.I.P
Posts: 37,208
Releases: 35391
From: Lithuania
On Forums: 12 years 1 month
Thanks: 421308 time(s)
Lithuania


(IMG:http://metalarea.org/images/audiocovers/2013_Jan/acov_tid192483_thumb.jpg)

*Artist: Archetype
*Album: Dawning
*Year: 2002
*Genre: Progressive/Power Metal
*Country: United States (IMG:http://metalarea.org/forum/style_images/flags/United%20States.png)
*Format: mp3@CBR320kbps
*Size: 152MB

Tracklist:
01. Final Day 06:33
02. Hands Of Time 04:30
03. Dawning 07:01
04. Dissension's Wake 05:27
05. Inside Your Dreams 06:11
06. Premonitions 06:51
07. Visionary 06:52
08. Arisen 05:08
09. The Mind's Eye 05:25
10. Years Ago 12:38
11. Reflection (Bonus Track) 03:30
******************************
Total playing time: 1:10:06

(IMG:http://metalarea.org/images/myspace.png)

Extended info


(IMG:http://metalarea.org/images/spectrogram/2013_Jan/7fae625a919506a05edf6c0660d1cb35.png)
Input File: 02. Hands of Time.mp3
Channels : 2
Sample Rate : 44100
Precision : 16-bit
Duration : 00:04:31.02 = 11951938 samples = 20326.4 CDDA sectors
File Size : 10.8M
Bit Rate : 320k
Sample Encoding: MPEG audio (layer I, II or III)
Comments :
Title=Hands Of Time
Artist=Archetype
Album=Dawning
Tracknumber=2
Year=2002



Register


Go to the top of the page
  Insert nick Quick quote
+Quote Post
 
Start new topic
Replies (1 - 4)
post Jan 23 2013, 11:06:41
Post #2

21st Century Schizoid Man
**************
Group: Металариец
Posts: 6,532
Releases: 80
From: Moscow
On Forums: 12 years 2 months
Thanks: 5390 time(s)
Russian Federation


Интересная команда. Спасибо! (IMG:style_emoticons/default/smile1.gif)
Go to the top of the page
  Insert nick Quick quote
+Quote Post
post Jan 24 2013, 08:40:24
Post #3

Четыре Литра
****
Group: Металариец
Posts: 333
Releases: 0
On Forums: 11 years 6 months
Thanks: 51 time(s)
Russian Federation


You sir, are a boss.
Go to the top of the page
  Insert nick Quick quote
+Quote Post
post Jan 22 2017, 06:22:07
Post #4

Правь статус, ####!111
**************
Group: Металариец
Posts: 8,343
Releases: 0
From: Москва
On Forums: 10 years 11 months
Thanks: 14828 time(s)
Russian Federation


Register
320
Go to the top of the page
  Insert nick Quick quote
+Quote Post
post Jun 30 2020, 04:50:52
Post #5

Going home. Flying high.
**************
Group: Металариец
Posts: 13,018
Releases: 0
From: The Land of Shadows
On Forums: 13 years 10 months
Thanks: 24308 time(s)
Russian Federation


from web - 13 tracks
Register


Thanks:
(1) Lukittaz,
Go to the top of the page
  Insert nick Quick quote
+Quote Post

Reply to this topicStart new topic
2 User(s) are reading this topic (2 Guests and 0 Anonymous Users)
0 Members:

 



- Lo-Fi Version Support form
Copyrights and abuse reports form
Time is now: 9th July 2020 - 09:53:04