Welcome Guest ( Log In | Register )

> 

Здесь релизы с живыми прямыми ссылками на lossless

> Usnea - Usnea (2013), Doom/Sludge/Death Metal
post Jan 24 2013, 10:40:38
Post #1

Serial Uploader
Group Icon
Group: V.I.P
Posts: 36,463
Releases: 34651
From: Lithuania
On Forums: 11 years 5 months
Thanks: 404837 time(s)
Lithuania


(IMG:http://metalarea.org/images/audiocovers/2013_Jan/acov_tid192568_thumb.png)

*Artist: Usnea
*Album: Usnea
*Year: 2013
*Genre: Doom/Sludge/Death Metal
*Country: United States (IMG:http://metalarea.org/forum/style_images/flags/United%20States.png)
*Format: mp3@CBR320kbps
*Size: 121MB

Tracklist:
01. Chaoskampf 12:47
02. Brazen Bull Of Phalaris 17:30
03. Monuments To Avarice 14:22
04. Empirical Evidence Of A Deranged God 10:21
******************************
Total playing time: 55:00




Extended info

(IMG:http://metalarea.org/images/spectrogram/2013_Jan/4746b4746f2d6a8615ecfbd35d6626df.png)
Input File: 04. Empirical Evidence Of A Deranged God.mp3
Channels : 2
Sample Rate : 44100
Precision : 16-bit
Duration : 00:10:21.56 = 27410928 samples = 46617.2 CDDA sectors
File Size : 24.9M
Bit Rate : 320k
Sample Encoding: MPEG audio (layer I, II or III)
Comments :
Title=Empirical Evidence of a Deranged God
Artist=Usnea
Album=Usnea
Tracknumber=4/0
Year=2013
Genre=Doom Metal
Discnumber=0/0




Register


Go to the top of the page
  Insert nick Quick quote
+Quote Post
 
Start new topic
Replies (1 - 2)
post Oct 9 2019, 20:55:36
Post #2

Group: Подсевший
Posts: 20
Releases: 0
From: msk
On Forums: 9 years 7 months
Thanks: 3 time(s)
Russian Federation


2013 - Usnea.rar 320kbit
https://my-files.ru/io8an3
Go to the top of the page
  Insert nick Quick quote
+Quote Post
post Oct 10 2019, 06:27:06
Post #3

Group: Подсевший
Posts: 20
Releases: 0
From: msk
On Forums: 9 years 7 months
Thanks: 3 time(s)
Russian Federation


2013 - Usnea [FLAC tracks].zip Lossless 400MB
Register


This post has been edited by Borderline1991: Oct 10 2019, 06:50:04
Reason for edit: hide
Go to the top of the page
  Insert nick Quick quote
+Quote Post

Reply to this topicStart new topic
1 User(s) are reading this topic (1 Guests and 0 Anonymous Users)
0 Members:

 



- Lo-Fi Version Support form
Copyrights and abuse reports form
Time is now: 19th November 2019 - 08:46:51