Welcome Guest ( Log In | Register )

> Ancestral Shadows - Forest Of Heathen Rebirth [demo] (2011), Black Metal
post Jan 24 2013, 12:54:35
Post #1

Serial Uploader
Group Icon
Group: V.I.P
Posts: 38,932
Releases: 37068
From: Lithuania
On Forums: 14 years 3 months
Thanks: 463013 time(s)
Lithuania


(IMG:http://metalarea.org/images/audiocovers/2013_Jan/acov_tid192573_thumb.jpg)

*Artist: Ancestral Shadows
*Album: Forest Of Heathen Rebirth [demo]
*Year: 2011
*Genre: Black Metal
*Country: United States (IMG:http://metalarea.org/forum/style_images/flags/United%20States.png)
*Format: mp3@CBR320kbps
*Size: 49MB

Tracklist:
01. Intro: The Wolf Age 00:58
02. Throne Of Despair 06:27
03. Ancestral Shadows 07:18
04. Forest Of Heathen Rebirth 08:10
05. Dusk's Final Breath 00:55
******************************
Total playing time: 23:48


(IMG:http://metalarea.org/images/youtube.png)

Extended info


(IMG:http://metalarea.org/images/spectrogram/2013_Jan/2e561376ebe7dfae00cd5280f38231c0.png)
Input File: 03. Ancestral Shadows (demo version).mp3
Channels : 2
Sample Rate : 44100
Precision : 16-bit
Duration : 00:07:18.27 = 19327751 samples = 32870.3 CDDA sectors
File Size : 17.6M
Bit Rate : 321k
Sample Encoding: MPEG audio (layer I, II or III)
Comments :
Title=Ancestral Shadows (demo version)
Artist=ANCESTRAL SHADOWS
Album=FOREST OF HEATHEN REBIRTH - Demo 2011
Tracknumber=3
Year=2011



Register


Go to the top of the page
  Insert nick Quick quote
+Quote Post
 
Start new topic
Replies (1 - 1)
post May 14 2017, 08:25:20
Post #2

Правь статус, ####!111
**************
Group: Металариец
Posts: 9,451
Releases: 0
From: Москва
On Forums: 13 years 1 month
Thanks: 18467 time(s)
Russian Federation


Register
320


Go to the top of the page
  Insert nick Quick quote
+Quote Post

Reply to this topicStart new topic
1 User(s) are reading this topic (1 Guests and 0 Anonymous Users)
0 Members:

 



- Lo-Fi Version Support form
Copyrights and abuse reports form
Time is now: 25th September 2022 - 09:33:10