Welcome Guest ( Log In | Register )

> Satan - Svastika [ep] (2005), Black Metal
post Jan 26 2013, 23:18:48
Post #1

Правь статус, 616
**************
Group: Металариец
Posts: 8,199
Releases: 6498
From: 55°35’N 38°08’E
On Forums: 14 years 4 months
Thanks: 118258 time(s)
Russian Federation


(IMG:http://metalarea.org/images/audiocovers/2013_Jan/acov_tid192771_thumb.jpg)

*Artist: Satan
*Album: Svastika [ep]
*Year: 2005
*Genre: Black Metal
*Country: Peru (IMG:http://metalarea.org/forum/style_images/flags/Peru.png)
*Format: mp3@CBR320kbps
*Size: 37MB

Tracklist:
1. Conquista 03:43
2. Sabiduría 04:01
3. Svastika 05:27
4. Reflexiones 03:48
******************************
Total playing time: 16:59

Extended info


(IMG:http://metalarea.org/images/spectrogram/2013_Jan/be18334633fbd099d05b40f0a051e738.png)
Input File: 02 Sabiduría.mp3
Channels : 2
Sample Rate : 44100
Precision : 16-bit
Duration : 00:04:01.48 = 10649048 samples = 18110.6 CDDA sectors
File Size : 9.70M
Bit Rate : 321k
Sample Encoding: MPEG audio (layer I, II or III)
Comments :
Title=Sabiduria
Artist=Satan
Album=Svastika
Tracknumber=2
Year=2005
Genre=Black Metal


Register


Go to the top of the page
  Insert nick Quick quote
+Quote Post
 
Start new topic
Replies (1 - 1)
post Jan 27 2013, 05:21:12
Post #2

Правь статус, ####!111
**************
Group: Металариец
Posts: 51,932
Releases: 955
On Forums: 13 years 5 months
Thanks: 48742 time(s)
Russian Federation


(IMG:style_emoticons/default/normal_Homerdisgust3.png) Дичь какая! Пер(д)ушники постят на облогу убогую фотографию леса, обзываясь Сатаной называя творение Свастика.
Go to the top of the page
  Insert nick Quick quote
+Quote Post

Reply to this topicStart new topic
1 User(s) are reading this topic (1 Guests and 0 Anonymous Users)
0 Members:

 



- Lo-Fi Version Support form
Copyrights and abuse reports form
Time is now: 29th November 2022 - 11:47:14