Welcome Guest ( Log In | Register )

> Lugnasad - Smell Of A Grey Sore (2012), Black Metal
post Feb 2 2013, 14:10:37
Post #1

Serial Uploader
Group Icon
Group: V.I.P
Posts: 34,776
Releases: 33004
From: Lithuania
On Forums: 10 years 10 months
Thanks: 377123 time(s)
Lithuania


(IMG:http://metalarea.org/images/audiocovers/2013_Feb/acov_tid193186_thumb.jpg)

*Artist: Lugnasad
*Album: Smell Of A Grey Sore
*Year: 2012
*Genre: Black Metal
*Country: France (IMG:http://metalarea.org/forum/style_images/flags/France.png)
*Format: mp3@CBR320kbps
*Size: 108MB

Tracklist:
01. Four In The Fifth Finger 07:29
02. Xerolagnia 05:42
03. Smell Of A Grey Sore 06:00
04. Frigid Feast 06:27
05. The Veiled Whore 09:45
06. Novus Ordo Seclorum 04:28
07. Scarified 10:27
******************************
Total playing time: 50:18


(IMG:http://metalarea.org/images/youtube.png)

Extended info


(IMG:http://metalarea.org/images/spectrogram/2013_Feb/f2f3693eef920c86b42aafc5c99aea23.png)
Input File: 02 Xerolagnia.mp3
Channels : 2
Sample Rate : 44100
Precision : 16-bit
Duration : 00:05:42.18 = 15090006 samples = 25663.3 CDDA sectors
File Size : 13.7M
Bit Rate : 321k
Sample Encoding: MPEG audio (layer I, II or III)
Comments :
Title=Xerolagnia
Artist=Lugnasad
Album=Smell of a Grey Sore
Tracknumber=2/7
Genre=Black Metal



Register


Go to the top of the page
  Insert nick Quick quote
+Quote Post
 
Start new topic
Replies (1 - 6)
post Feb 2 2013, 16:46:49
Post #2

Шесть Шесть Шесть Литров
******
Group: Металариец
Posts: 566
Releases: 0
On Forums: 9 years 1 week
Thanks: 490 time(s)
NATO


Добротная штука, жанр скорее Dark/Black Metal (IMG:style_emoticons/default/headcrab.png)


Thanks:
(1) stone88,
Go to the top of the page
  Insert nick Quick quote
+Quote Post
post Feb 2 2013, 17:01:29
Post #3

Шесть Литров
******
Group: Металариец
Posts: 619
Releases: 18
On Forums: 13 years 3 weeks
Thanks: 417 time(s)
Russian Federation


Довольно любопытный клип получился. По атмосфере "Begotten" напоминает, хоть и попопсовей.
Музло в духе какого-то мазохистского блэк-метал лайка. Придётся скачать для более детального ознакомления.
Go to the top of the page
  Insert nick Quick quote
+Quote Post
post Feb 2 2013, 17:02:15
Post #4

sic
***********
Group: Металариец
Posts: 1,606
Releases: 9
From: Волынь - земля родная, сейчас на Львовщине
On Forums: 11 years 9 months
Thanks: 831 time(s)
Ukraine


Shining - Submit to Selfdestruction - вид сбоку,судя по треку на видео.
Go to the top of the page
  Insert nick Quick quote
+Quote Post
post Feb 3 2013, 10:30:58
Post #5

Четыре Литра
****
Group: Металариец
Posts: 311
Releases: 0
On Forums: 12 years 8 months
Thanks: 174 time(s)
Belarus


после просмотра клипа отбило всю охоту качать... хотя судя по youtube другие треки с данного альбома более динамичны и наиболее соответствуют указанному жанру
Go to the top of the page
  Insert nick Quick quote
+Quote Post
post Feb 6 2013, 00:58:54
Post #6

Group: Подсевший
Posts: 10
Releases: 0
On Forums: 10 years 6 months
Thanks: 4 time(s)
Russian Federation


Скорее на Dissection похоже судя по прослушке альбома целиком
Go to the top of the page
  Insert nick Quick quote
+Quote Post
post Apr 15 2019, 19:41:58
Post #7


***********
Group: Металариец
Posts: 1,557
Releases: 16
From: Москва
On Forums: 12 years 4 months
Thanks: 2141 time(s)
Russian Federation


Register


Go to the top of the page
  Insert nick Quick quote
+Quote Post

Reply to this topicStart new topic
2 User(s) are reading this topic (2 Guests and 0 Anonymous Users)
0 Members:

 



- Lo-Fi Version Support form
Copyrights and abuse reports form
Time is now: 19th April 2019 - 02:04:48