Welcome Guest ( Log In | Register )

> Vomitous Discharge & No One Gets Out Alive - German Underground Zombie Raid [split] (2010), Goregrind | Brutal Death Metal/Goregrind
post Feb 3 2013, 17:35:35
Post #1

Serial Uploader
Group Icon
Group: V.I.P
Posts: 38,748
Releases: 36887
From: Lithuania
On Forums: 14 years 2 months
Thanks: 458377 time(s)
Lithuania


(IMG:http://metalarea.org/images/audiocovers/2013_Feb/acov_tid193287_thumb.jpg)

*Artist: Vomitous Discharge & No One Gets Out Alive
*Album: German Underground Zombie Raid [split]
*Year: 2010
*Genre: Goregrind | Brutal Death Metal/Goregrind
*Country: Germany (IMG:http://metalarea.org/forum/style_images/flags/Germany.png) | Germany (IMG:http://metalarea.org/forum/style_images/flags/Germany.png)
*Format: mp3@CBR320kbps
*Size: 115MB

Tracklist:
Vomitous Discharge:
01. As Time Goes By... 01:34
02. Vatican Trash 01:30
03. Vaticannon 01:16
04. Fanatic Money-Makers 01:06
05. Third World Chaos 00:46
06. Infant Rape 01:30
07. Distraction 02:05
08. Underground Nursery School 00:48
09. Being In Love With Plastic 02:18
10. Your Chance 02:09
11. Cannibals! 00:43
12. The Vomitous Discharge Pt. VI 00:06
13. Festive Hypocrisy 02:17
14. Totalitarianism Called Democracy 02:00
15. Vomit Yourself 01:02
16. Untitled 01:17
No One Gets Out Alive:
17. Doomed 02:07
18. Meat Hook Rehabilitation 00:55
19. Anti Human Medication 01:31
20. Run To Seed 02:13
21. Grill Humanity 01:43
22. Bursting Bowel 01:43
23. Evoking The Apokalypse 01:31
24. Animalistic Sickness 02:36
25. Contaminated Broiler Carcasses 01:15
26. Occlusion 01:33
27. Coercive Power 02:24
28. Human Cadaver Utilisation Plant 02:40
******************************
Total playing time: 44:38

(IMG:http://metalarea.org/images/myspace.png)
(IMG:http://metalarea.org/images/myspace.png)

Extended info


(IMG:http://metalarea.org/images/spectrogram/2013_Feb/9d2dc721ac9757c274fe3698e77497c2.png)
Input File: 02. Vatican Trash.mp3
Channels : 2
Sample Rate : 44100
Precision : 16-bit
Duration : 00:01:30.50 = 3990874 samples = 6787.2 CDDA sectors
File Size : 3.74M
Bit Rate : 330k
Sample Encoding: MPEG audio (layer I, II or III)
Comments :
Title=Vatican Trash
Artist=Vomitous Discharge
Album=German Underground Zombie Raid
Tracknumber=02
Year=2010
Genre=Grindcore



Register


Go to the top of the page
  Insert nick Quick quote
+Quote Post
 
Start new topic
Replies (1 - 1)
post Oct 22 2017, 12:30:32
Post #2

Правь статус, ####!111
**************
Group: Металариец
Posts: 9,448
Releases: 0
From: Москва
On Forums: 13 years 1 week
Thanks: 18351 time(s)
Russian Federation


Register
320


Thanks:
Go to the top of the page
  Insert nick Quick quote
+Quote Post

Reply to this topicStart new topic
1 User(s) are reading this topic (1 Guests and 0 Anonymous Users)
0 Members:

 



- Lo-Fi Version Support form
Copyrights and abuse reports form
Time is now: 11th August 2022 - 18:10:58