Welcome Guest ( Log In | Register )

> Fall To November Sky... - Loneliness Is A Cure (2012), Post-Black Metal/Shoegaze (D5)
post Feb 14 2013, 10:00:57
Post #1

Правь статус, ####!111
**************
Group: Металариец
Posts: 2,277
Releases: 1014
From: Гиперборе́я
On Forums: 8 years 2 days
Thanks: 21391 time(s)
Russian Federation


(IMG:http://metalarea.org/images/audiocovers/2013_Feb/acov_tid194093_thumb.jpg)

*Artist: Fall To November Sky...
*Album: Loneliness Is A Cure
*Year: 2012
*Genre: Post-Black Metal/Shoegaze
*Country: Russian Federation (IMG:http://metalarea.org/forum/style_images/flags/Russian%20Federation.png)
*Format: mp3@CBR320kbps
*Size: 127MB

Tracklist:
01. Childhood Is Gone 04:12
02. Journey To The Grey Lifeless Land 02:08
03. The April Melancholy Days 08:54
04. Through The Neon Rain 04:49
05. The Winter City Won't Let Us To Leave 05:40
06. 21 Years of Urban Rain 06:45
07. Hope 03:11
08. Mountain Air 08:31
09. Trapped In A Life 05:14
10. Closing Credits (To The Lonely Pagan Space) (Bonus Track) 06:24
******************************
Total playing time: 55:48



Extended info


(IMG:http://metalarea.org/images/spectrogram/2013_Feb/087d80dc3e568ca05bda9d9388a3883e.png)
Input File: 01 - Childhood Is Gone.mp3
Channels : 2
Sample Rate : 44100
Precision : 16-bit
Duration : 00:04:12.74 = 11145614 samples = 18955.1 CDDA sectors
File Size : 10.2M
Bit Rate : 322k
Sample Encoding: MPEG audio (layer I, II or III)
Comments :
Title=Childhood is Gone
Artist=Fall To November Sky...
Album=Loneliness Is A Cure
Tracknumber=01/10
Year=2012
Genre=Post-Black Metal/Shoegaze



Register


Go to the top of the page
  Insert nick Quick quote
+Quote Post
 
Start new topic
Replies (1 - 4)
post Feb 14 2013, 17:48:53
Post #2

Девять Литров
*********
Group: Металариец
Posts: 990
Releases: 91
On Forums: 7 years 7 months
Thanks: 2234 time(s)
Unknown


вполне себе неплохой альбом


Thanks:
Go to the top of the page
  Insert nick Quick quote
+Quote Post
post Feb 18 2013, 17:21:50
Post #3

Vana Peerukott
**************
Group: Металариец
Posts: 3,112
Releases: 239
From: Київ, Україна
On Forums: 12 years 7 months
Thanks: 3037 time(s)
Ukraine


"угадай страну по треклисту"

по превью - средненький поцрок, но на всякий случай скачаю
Go to the top of the page
  Insert nick Quick quote
+Quote Post
post Mar 4 2017, 20:51:42
Post #4

Правь статус, ####!111
**************
Group: Металариец
Posts: 6,615
Releases: 0
From: Москва
On Forums: 9 years 3 months
Thanks: 11702 time(s)
Russian Federation


Register
320


Thanks:
Go to the top of the page
  Insert nick Quick quote
+Quote Post
post Nov 9 2018, 08:18:14
Post #5

Ich bin die Trauer menschlich, kommen Sie zu mir und ich werde Ihnen vergelten
**************
Group: Металариец
Posts: 3,769
Releases: 692
From: Koenigsberg
On Forums: 10 years 10 months
Thanks: 9762 time(s)
Russian Federation


Register

Go to the top of the page
  Insert nick Quick quote
+Quote Post

Reply to this topicStart new topic
2 User(s) are reading this topic (2 Guests and 0 Anonymous Users)
0 Members:

 



- Lo-Fi Version Support form
Copyrights and abuse reports form
Time is now: 17th November 2018 - 09:29:00