Welcome Guest ( Log In | Register )

> Gomorha - Gomorha Hordes [demo] (1989), Death Metal
post Feb 16 2013, 22:14:11
Post #1

Serial Uploader
Group Icon
Group: V.I.P
Posts: 37,112
Releases: 35296
From: Lithuania
On Forums: 11 years 9 months
Thanks: 418049 time(s)
Lithuania


(IMG:http://metalarea.org/images/audiocovers/2013_Feb/acov_tid194306_thumb.jpg)

*Artist: Gomorha
*Album: Gomorha Hordes [demo]
*Year: 1989
*Genre: Death Metal
*Country: Netherlands (IMG:http://metalarea.org/forum/style_images/flags/Netherlands.png)
*Format: mp3@CBR320kbps
*Size: 36MB

Tracklist:
01. Gomorha Hordes (Intro)/ Gargling In Purulence 03:30
02. Dethrone Thy Master 04:18
03. Maleficence 09:33
04. Yog Sothoth, Lord Of Temptation 00:48
******************************
Total playing time: 18:09

Extended info
Tape-rip

(IMG:http://metalarea.org/images/spectrogram/2013_Feb/fe14193b88e515218323255dc347b9b7.png)
Input File: 05. Yog Sothoth (Lord of Temptation).mp3
Channels : 2
Sample Rate : 44100
Precision : 16-bit
Duration : 00:00:48.41 = 2134793 samples = 3630.6 CDDA sectors
File Size : 1.94M
Bit Rate : 321k
Sample Encoding: MPEG audio (layer I, II or III)
Comments :
Title=Yog Sothoth (Lord of Temptation)
Artist=Gomorha
Album=Gomorha Hordes
Tracknumber=05
Year=1989
Genre=Death Metal



Register


Go to the top of the page
  Insert nick Quick quote
+Quote Post
 
Start new topic
Replies (1 - 6)
post Oct 9 2014, 08:30:06
Post #2

Group: Дух
Posts: 3
Releases: 0
On Forums: 8 years 1 month
Thanks: 0 time(s)
Norway


New link, anyone?
Go to the top of the page
  Insert nick Quick quote
+Quote Post
post Oct 9 2014, 08:41:52
Post #3

Социопат.Маргинал. Мизантроп.Нигилист. Перверзный нарциссист.
**************
Group: Металариец
Posts: 5,564
Releases: 667
From: Город-герой Ленинград
On Forums: 9 years 1 month
Thanks: 6333 time(s)
Russian Federation


Register


Thanks:
(1) Evilded,
Go to the top of the page
  Insert nick Quick quote
+Quote Post
post Mar 25 2018, 13:53:29
Post #4

Group: Дух
Posts: 4
Releases: 0
On Forums: 2 years 2 weeks
Thanks: 1 time(s)
Antarctica


new link ?
Go to the top of the page
  Insert nick Quick quote
+Quote Post
post Mar 26 2018, 00:36:23
Post #5

Going home. Flying high.
**************
Group: Металариец
Posts: 12,966
Releases: 0
From: The Land of Shadows
On Forums: 13 years 7 months
Thanks: 23271 time(s)
Russian Federation


low bitrate from web (128 kbps)
Register


Go to the top of the page
  Insert nick Quick quote
+Quote Post
post Mar 26 2018, 07:52:34
Post #6

Forever Underground
**************
Group: Металариец
Posts: 6,704
Releases: 0
On Forums: 4 years 11 months
Thanks: 8194 time(s)
Unknown


QUOTE(utusumgal @ Mar 25 2018, 14:53:29) *
new link ?

From Diabolus' blog (many many THANKS, Chris!!!) - @320kbps (IMG:style_emoticons/default/25.gif)
Register

Cover scan (from Discogs): https://s14.postimg.org/m3ly7idmp/Gomorha-_..._Cover_scan.jpg


Go to the top of the page
  Insert nick Quick quote
+Quote Post
post Nov 9 2019, 19:06:54
Post #7

Шесть Литров
******
Group: Металариец
Posts: 548
Releases: 115
On Forums: 1 year 2 months
Thanks: 1259 time(s)
Canada


Gomorha Hordes Reh [Demo](89)
Genre: Death Metal
Country: Netherlands
Bitrate: 320
Register

---------------------------------------------------------------------
Thanks to the original uploader. from either Lockjaw blogspot or thrashmoegeddon.

Jan "Verpus" List - Drums,Percussion (Exmortes, Apator),
Theo Loomans (R.I.P. 1998) - Vocals,Guitar (Asphyx, Evoker, Soulburn).

https://www.metal-archives.com/bands/Gomorha/62548
https://www.discogs.com/Gomorha-Gomorha-Hor...release/7137940
18 minutes 9 seconds
---------------------------------------------------------------------
1.+2. Gomorha Hordes (Intro) + Gargling in Purulence (3:30)
3. Dethrone Thy Master (4:18)
4. Maleficence (9:33)
5. Yog Sothoth (Lord of Temptation) (0:48)


Thanks:
Go to the top of the page
  Insert nick Quick quote
+Quote Post

Reply to this topicStart new topic
2 User(s) are reading this topic (2 Guests and 0 Anonymous Users)
0 Members:

 



- Lo-Fi Version Support form
Copyrights and abuse reports form
Time is now: 30th March 2020 - 14:36:04