Welcome Guest ( Log In | Register )

> Evoke Thy Lords - Drunken Tales (2013), Psychedelic Doom Metal
post Feb 17 2013, 16:53:44
Post #1

...
**************
Group: Металариец
Posts: 3,375
Releases: 1428
From: МЕЩЁРА
On Forums: 11 years 8 months
Thanks: 40807 time(s)
Russian Federation


(IMG:http://metalarea.org/images/audiocovers/2013_Feb/acov_tid194360_thumb.jpg)

*Artist: Evoke Thy Lords
*Album: Drunken Tales
*Year: 2013
*Genre: Psychedelic Doom Metal
*Country: Russian Federation (IMG:http://metalarea.org/forum/style_images/flags/Russian%20Federation.png)
*Format: mp3@CBR320kbps
*Size: 101MB

Tracklist:
1. Routine Of Life 09:13
2. Dirty Game 08:17
3. Down The Drain 07:17
4. Dregs 09:02
5. Cause Follows Effect 09:20
******************************
Total playing time: 43:09

(IMG:http://metalarea.org/images/myspace.png)


Extended info


(IMG:http://metalarea.org/images/spectrogram/2013_Feb/8e2c2980b03d4643de644923288a3cff.png)
Input File: 03. Down the Drain.mp3
Channels : 2
Sample Rate : 44100
Precision : 16-bit
Duration : 00:07:17.49 = 19293177 samples = 32811.5 CDDA sectors
File Size : 17.8M
Bit Rate : 326k
Sample Encoding: MPEG audio (layer I, II or III)
Comments :
Title=Down the Drain
Artist=Evoke Thy Lords
Album=Drunken Tales
Tracknumber=3
Year=2013



Register


Go to the top of the page
  Insert nick Quick quote
+Quote Post
 
Start new topic
Replies (1 - 3)
post Feb 18 2013, 10:51:01
Post #2

####!111
**************
Group: Металариец
Posts: 3,801
Releases: 125
From: The Mountain Of DOOM
On Forums: 12 years 2 months
Thanks: 5311 time(s)
Russian Federation


После унылейшего готик-митола наконец-то хоть что-то достойное: стоунер с гроулингом и арт-роковой флейтой и ритм-секцией.
К сожалению весь альбом за исключением бонуса Cause Follows Effect воспринимается как один трек, во многом именно из-за монотонного гроулинга. Если первый трек идет на ура, то 4-й звучит уже фоном. В последней композиции звучит женский голос, приятностью не отличающийся. В общем альбомчик на крепкую троечку.
Облога очень понравилась.
Go to the top of the page
  Insert nick Quick quote
+Quote Post
post Apr 9 2013, 17:07:56
Post #3

Шесть Литров
******
Group: Металариец
Posts: 664
Releases: 0
On Forums: 10 years 7 months
Thanks: 918 time(s)
Russian Federation


Рецензия на альбом: http://www.metallibrary.ru/articles/reviews/8834.html
Плюс ноябрьское интервью: http://www.metallibrary.ru/articles/interviews/418.html
Go to the top of the page
  Insert nick Quick quote
+Quote Post
post Apr 30 2015, 13:40:08
Post #4

Наливай!
**************
Group: Металариец
Posts: 5,481
Releases: 27
From: Москва-Бибирево
On Forums: 11 years 8 months
Thanks: 2671 time(s)
Russian Federation


Dirty Game понравилась.
Go to the top of the page
  Insert nick Quick quote
+Quote Post

Reply to this topicStart new topic
2 User(s) are reading this topic (2 Guests and 0 Anonymous Users)
0 Members:

 



- Lo-Fi Version Support form
Copyrights and abuse reports form
Time is now: 10th December 2019 - 17:15:23