Welcome Guest ( Log In | Register )

> Vulture - Godhead [ep] (2013), Progressive Deathcore
post Feb 17 2013, 20:43:15
Post #1

Serial Uploader
Group Icon
Group: V.I.P
Posts: 37,532
Releases: 35706
From: Lithuania
On Forums: 12 years 10 months
Thanks: 431369 time(s)
Lithuania


(IMG:http://metalarea.org/images/audiocovers/2013_Feb/acov_tid194375_thumb.jpg)

*Artist: Vulture
*Album: Godhead [ep]
*Year: 2013
*Genre: Progressive Deathcore
*Country: United States (IMG:http://metalarea.org/forum/style_images/flags/United%20States.png)
*Format: mp3@CBR320kbps
*Size: 29MB

Tracklist:
01. Kundalini 03:56
02. Ciphers 05:09
03. Amenta 03:35
******************************
Total playing time: 12:40



(IMG:http://metalarea.org/images/youtube.png)

Extended info

(IMG:http://metalarea.org/images/spectrogram/2014_Dec/db5f389d06b75ee0827648ee7079b33f.png)
Input File: 02. Ciphers.mp3
Channels : 2
Sample Rate : 44100
Precision : 16-bit
Duration : 00:05:09.27 = 13638631 samples = 23195 CDDA sectors
File Size : 12.5M
Bit Rate : 324k
Sample Encoding: MPEG audio (layer I, II or III)
Comments :
Title=Ciphers
Artist=Vulture
Album=GODHEAD
Tracknumber=2
Year=2013


Register


Thanks:
(1) varlam4,
Go to the top of the page
  Insert nick Quick quote
+Quote Post
 
Start new topic
Replies (1 - 3)
post Feb 20 2013, 15:38:43
Post #2

Четыре Литра
****
Group: Металариец
Posts: 305
Releases: 0
From: Hellisipolis
On Forums: 12 years 2 months
Thanks: 34 time(s)
Antarctica


Register


Thanks:
(1) varlam4,
Go to the top of the page
  Insert nick Quick quote
+Quote Post
post Feb 21 2013, 12:06:04
Post #3

Маньяк
**********
Group: Металариец
Posts: 1,115
Releases: 0
On Forums: 9 years 11 months
Thanks: 531 time(s)
Unknown


^I think those are .wav files, which explains the size...
Go to the top of the page
  Insert nick Quick quote
+Quote Post
post Mar 1 2013, 02:46:55
Post #4

Четыре Литра
****
Group: Металариец
Posts: 305
Releases: 0
From: Hellisipolis
On Forums: 12 years 2 months
Thanks: 34 time(s)
Antarctica


Yes, I forgot to mention those 124 mb are from 3 tracks in WAV format
Go to the top of the page
  Insert nick Quick quote
+Quote Post

Reply to this topicStart new topic
2 User(s) are reading this topic (2 Guests and 0 Anonymous Users)
0 Members:

 



- Lo-Fi Version Support form
Copyrights and abuse reports form
Time is now: 14th April 2021 - 15:46:15