Welcome Guest ( Log In | Register )

> Corpseflesh - Tattooed By A Blowtorch (2013), Brutal Death Metal
post Feb 20 2013, 10:18:30
Post #1

Serial Uploader
Group Icon
Group: V.I.P
Posts: 32,855
Releases: 31151
From: Lithuania
On Forums: 10 years 1 month
Thanks: 356870 time(s)
Lithuania


(IMG:http://metalarea.org/images/audiocovers/2013_Feb/acov_tid194541_thumb.jpg)

*Artist: Corpseflesh
*Album: Tattooed By A Blowtorch
*Year: 2013
*Genre: Brutal Death Metal
*Country: Australia (IMG:http://metalarea.org/forum/style_images/flags/Australia.png)
*Format: mp3@CBR320kbps
*Size: 74MB

Tracklist:
01. Raped By A Carcass 03:50
02. Grave Excavations And Great Expectations 03:39
03. Diesel Cleaver 03:24
04. Chainsaw Masturbation 03:20
05. Anal Vomitorium 03:21
06. Tattooed By A Blowtorch 02:49
07. Psychotic Dismemberment 04:39
08. Oral Disembowelment 02:49
09. Festering Gash 02:59
******************************
Total playing time: 30:50

(IMG:http://metalarea.org/images/myspace.png)

Extended info


(IMG:http://metalarea.org/images/spectrogram/2013_Feb/b8452f77b7eac7b7805b587e2ca47db1.png)
Input File: Ungodly Ruins Productions - Tattooed By A Blowtorch - 08 Oral Disembowelment.mp3
Channels : 2
Sample Rate : 44100
Precision : 16-bit
Duration : 00:02:49.16 = 7460000 samples = 12687.1 CDDA sectors
File Size : 7.22M
Bit Rate : 341k
Sample Encoding: MPEG audio (layer I, II or III)
Comments :
Title=Oral Disembowelment
Artist=CORPSEFLESH
Album=Tattooed By A Blowtorch
Tracknumber=8
Year=2013



Register


Go to the top of the page
  Insert nick Quick quote
+Quote Post
 
Start new topic
Replies (1 - 7)
post Feb 20 2013, 14:23:41
Post #2

Insidious
**
Group: Завсегдатай
Posts: 150
Releases: 3
From: UK
On Forums: 9 years 3 months
Thanks: 170 time(s)
United Kingdom


Отличнейший бэнд. для фанов Gorgasm!!!
Go to the top of the page
  Insert nick Quick quote
+Quote Post
post Feb 20 2013, 15:41:19
Post #3

Мегаманьяк
***********
Group: Металариец
Posts: 1,778
Releases: 238
On Forums: 8 years 6 months
Thanks: 2720 time(s)
Russian Federation


День BDM релизов) Scatorgy, Craniotomy еще бы Carnivore Diprosopus уже наконец объявился в сети
Go to the top of the page
  Insert nick Quick quote
+Quote Post
post Feb 20 2013, 16:45:12
Post #4

Crush The Enemies
**************
Group: Металариец
Posts: 4,088
Releases: 0
From: Moscow
On Forums: 8 years 10 months
Thanks: 2045 time(s)
Russian Federation


Брутала тут явно нет - дэтуха среднего пошива,на раз...
Go to the top of the page
  Insert nick Quick quote
+Quote Post
post Feb 21 2013, 04:55:34
Post #5

Crush! Kill! Destroy!
**************
Group: Металариец
Posts: 4,487
Releases: 15
From: Kaliningrad
On Forums: 10 years 7 months
Thanks: 4181 time(s)
Russian Federation


Что-то среднее между бруталом и обычным дэзом. И как-то да, соглашусь с предыдущим высказыванием, ничего интересного. Огорчили австралийцы.
Go to the top of the page
  Insert nick Quick quote
+Quote Post
post Feb 21 2013, 10:57:32
Post #6

sic
***********
Group: Металариец
Posts: 1,606
Releases: 9
From: Волынь - земля родная, сейчас на Львовщине
On Forums: 11 years 6 days
Thanks: 824 time(s)
Ukraine


Пустышка (IMG:style_emoticons/default/smile2.gif)
Go to the top of the page
  Insert nick Quick quote
+Quote Post
post Feb 26 2013, 06:58:46
Post #7

butcher da weak
*****
Group: Металариец
Posts: 419
Releases: 6
On Forums: 10 years 11 months
Thanks: 127 time(s)
Virgin Islands


название и обложка фэйл. реднек стайл какой-то. третий невнятный релиз от ungodlyruins.
Go to the top of the page
  Insert nick Quick quote
+Quote Post
post Jul 11 2018, 16:04:40
Post #8

hearer & reader
**************
Group: Металариец
Posts: 6,506
Releases: 81
From: Moscow
On Forums: 10 years 10 months
Thanks: 6455 time(s)
Russian Federation


халява

да, не ахти
Go to the top of the page
  Insert nick Quick quote
+Quote Post

Reply to this topicStart new topic
2 User(s) are reading this topic (2 Guests and 0 Anonymous Users)
0 Members:

 



- Lo-Fi Version Support form
Copyrights and abuse reports form
Time is now: 17th July 2018 - 20:12:47