Welcome Guest ( Log In | Register )

> И неформату есть предел.

Рэп/хип-хоп/шансон/поп удаляются. Для них есть свои порталы.

> David Gilmour - About Face (1984), Progressive Art Rock
frost192
post Mar 2 2013, 20:43:20
Post #1

Guests team






(IMG:http://metalarea.org/images/audiocovers/2013_Mar/acov_tid195333_thumb.jpg)

*Artist: David Gilmour
*Album: About Face
*Year: 1984
*Genre: Progressive Art Rock
*Country: United Kingdom (IMG:http://metalarea.org/forum/style_images/flags/United%20Kingdom.png)
*Format: mp3@CBR320kbps
*Size: 113MB

Tracklist:
01. Until We Sleep 05:15
02. Murder 04:59
03. Love On The Air 04:19
04. Blue Light 04:35
05. Out Of The Blue 03:35
06. All Lovers Are Deranged 03:14
07. You Know I'm Right 05:06
08. Cruise 04:40
09. Let's Get Metaphysical 04:09
10. Near The End 05:36
******************************
Total playing time: 45:28

Extended info
Насколько мизантропичен и циничен самый многословный альбом в истории рока, первый сольник Роджера Уотерса, настолько же красив мелодичен и атмосферен второй сольник Гилмора...

(IMG:http://metalarea.org/images/spectrogram/2013_Mar/d377109e125da7415ed89fca37838427.png)
Input File: 05 Out Of The Blue.mp3
Channels : 2
Sample Rate : 44100
Precision : 16-bit
Duration : 00:03:35.73 = 9513825 samples = 16180 CDDA sectors
File Size : 8.74M
Bit Rate : 324k
Sample Encoding: MPEG audio (layer I, II or III)
Comments :
Title=Out Of The Blue
Artist=David Gilmour
Album=About Face
Tracknumber=5/10
Year=1984
Genre=Rock



Register


Go to the top of the page
  Insert nick Quick quote
+Quote Post
 
Start new topic
Replies (1 - 2)
frost192
post Sep 18 2015, 19:31:25
Post #2

Guests team






Register


Thanks:
Go to the top of the page
  Insert nick Quick quote
+Quote Post
post Sep 25 2020, 07:52:34
Post #3

Враг Газпрома
**************
Group: Металариец
Posts: 6,374
Releases: 0
On Forums: 11 years 6 months
Thanks: 2546 time(s)
Russian Federation


Знакомый голос, узнаваемое звучание гитары. Но больше стилистического разнообразия. Фанковый боевик Blue Light с кучей всяких трумпеток, помпезная Let's Get Metaphysical, софт-рок Love On The Air и Cruise, хард-рок All Lovers Are Deranged. А вот в Near The End и Murder слышны наработки, которые потом будут использованы в A Momentary Lapse... Очень красивая музыка, до которой я допер чуть позже, поскольку и от сольных работ Гилмора хотелось знакомого ПФ-звучания.
Register
Go to the top of the page
  Insert nick Quick quote
+Quote Post

Reply to this topicStart new topic
1 User(s) are reading this topic (1 Guests and 0 Anonymous Users)
0 Members:

 



- Lo-Fi Version Support form
Copyrights and abuse reports form
Time is now: 3rd December 2020 - 20:29:10