Welcome Guest ( Log In | Register )

> Six Feet Under - Unborn (2013), Death/Groove Metal/Death 'N' Roll
post Mar 5 2013, 01:54:34
Post #1

Serial Uploader
Group Icon
Group: V.I.P
Posts: 32,736
Releases: 31034
From: Lithuania
On Forums: 10 years 2 weeks
Thanks: 355753 time(s)
Lithuania


(IMG:http://metalarea.org/images/audiocovers/2013_Mar/acov_tid195505_thumb.jpg)

*Artist: Six Feet Under
*Album: Unborn
*Year: 2013
*Genre: Death/Groove Metal/Death 'N' Roll
*Country: United States (IMG:http://metalarea.org/forum/style_images/flags/United%20States.png)
*Format: mp3@CBR320kbps
*Size: 101MB

Tracklist:
01. Neuro Osmosis 03:10
02. Prophecy 03:19
03. Zombie Blood Curse 04:08
04. Decapitate 02:50
05. Incision 02:48
06. Fragment 02:56
07. Alive To Kill You 03:17
08. The Sinister Craving 02:16
09. Inferno 02:53
10. Psychosis 03:47
11. The Curse Of Ancients 04:37
******************************
Total playing time: 36:01

(IMG:http://metalarea.org/images/myspace.png)

Extended info


(IMG:http://metalarea.org/images/spectrogram/2013_Mar/b41488bcffa8eddac0b190bc7fccf7d2.png)
Input File: 03 Zombie Blood Curse.mp3
Channels : 2
Sample Rate : 44100
Precision : 16-bit
Duration : 00:04:08.42 = 10955498 samples = 18631.8 CDDA sectors
File Size : 11.2M
Bit Rate : 359k
Sample Encoding: MPEG audio (layer I, II or III)
Comments :
Title=Zombie Blood Curse
Artist=Six Feet Under
Album=Unborn
Tracknumber=3/11
Year=2013
Genre=9
Discnumber=1/1



Register


Go to the top of the page
  Insert nick Quick quote
+Quote Post
5 Pages V  « < 3 4 5  
Start new topic
Replies (120 - 123)
post Mar 2 2017, 12:05:58
Post #121

Правь статус, ####!111
**************
Group: Металариец
Posts: 32,312
Releases: 486
On Forums: 9 years 2 weeks
Thanks: 24728 time(s)
Russian Federation


Aresson, успокойся уже.
Go to the top of the page
  Insert nick Quick quote
+Quote Post
post Mar 2 2017, 12:11:09
Post #122

Котеги! Нравяцо котеги?
**************
Group: Металариец
Posts: 4,612
Releases: 0
From: Терра Инкогнита
On Forums: 8 years 3 weeks
Thanks: 1554 time(s)
Russian Federation


как тут можно успокоится, когда ты такую пургу несёшь мегатоннами?
Go to the top of the page
  Insert nick Quick quote
+Quote Post
post Sep 13 2017, 17:14:13
Post #123

Правь статус, ####!111
**************
Group: Металариец
Posts: 32,312
Releases: 486
On Forums: 9 years 2 weeks
Thanks: 24728 time(s)
Russian Federation


Zombie Blood Curse, Decapitate, Incision, Inferno, The Curse Of Ancients - вот эти трэки выделю особо.
Go to the top of the page
  Insert nick Quick quote
+Quote Post
post Dec 16 2017, 13:29:13
Post #124

Пять Литров
*****
Group: Металариец
Posts: 425
Releases: 23
On Forums: 4 years 8 months
Thanks: 794 time(s)
Unknown


Re-uploaded Mp3 CBR 320
Register


Thanks:
Go to the top of the page
  Insert nick Quick quote
+Quote Post

5 Pages V  « < 3 4 5
Reply to this topicStart new topic
1 User(s) are reading this topic (1 Guests and 0 Anonymous Users)
0 Members:

 



- Lo-Fi Version Support form
Copyrights and abuse reports form
Time is now: 23rd June 2018 - 11:28:11