Welcome Guest ( Log In | Register )

> Bioplasma - Cerebral Abduction [ep] (2013), Technical/Brutal Death Metal
post Mar 5 2013, 14:55:08
Post #1

Serial Uploader
Group Icon
Group: V.I.P
Posts: 37,275
Releases: 35456
From: Lithuania
On Forums: 12 years 1 month
Thanks: 422397 time(s)
Lithuania


(IMG:http://metalarea.org/images/audiocovers/2013_Mar/acov_tid195552_thumb.png)

*Artist: Bioplasma
*Album: Cerebral Abduction [ep]
*Year: 2013
*Genre: Technical/Brutal Death Metal
*Country: New Zealand (IMG:http://metalarea.org/forum/style_images/flags/New%20Zealand.png)
*Format: mp3@CBR320kbps
*Size: 28MB

Tracklist:
01. Intro: Contact/Unknown 01:05
02. Cerebral Abduction 04:32
03. Extraterrestrial Bioplasm 04:24
04. Outro: NGC-598 Transmission 01:14
******************************
Total playing time: 11:15



Extended info


(IMG:http://metalarea.org/images/spectrogram/2013_Mar/dbf056d18a973e5a0d9a9d2511c7e8bb.png)
Input File: 03. Extraterrestrial Bioplasm.mp3
Channels : 2
Sample Rate : 44100
Precision : 16-bit
Duration : 00:04:24.67 = 11671991 samples = 19850.3 CDDA sectors
File Size : 11.0M
Bit Rate : 332k
Sample Encoding: MPEG audio (layer I, II or III)
Comments :
Title=Extraterrestrial Bioplasm
Artist=Bioplasma
Album=Cerebral Abduction
Tracknumber=3
Year=2013



Register


Go to the top of the page
  Insert nick Quick quote
+Quote Post
 
Start new topic
Replies (1 - 3)
post Mar 5 2013, 17:51:47
Post #2

Don't be negative.
**************
Group: Металариец
Posts: 2,859
Releases: 754
From: Earthmother
On Forums: 9 years 10 months
Thanks: 10117 time(s)
Ukraine


забавно они звук накрутили
Go to the top of the page
  Insert nick Quick quote
+Quote Post
post Mar 5 2013, 19:48:08
Post #3

Let's Go Ducks!
**************
Group: Металариец
Posts: 2,321
Releases: 10
From: Khazad-dûm
On Forums: 12 years 6 months
Thanks: 1101 time(s)
Ukraine


One man band с отвратнейшим звуком (IMG:style_emoticons/default/22.gif)
Go to the top of the page
  Insert nick Quick quote
+Quote Post
post Aug 1 2020, 17:15:22
Post #4

hard sci-fi rock
**************
Group: Металариец
Posts: 2,444
Releases: 48
From: Purple sea
On Forums: 2 years 6 months
Thanks: 2506 time(s)
Unknown


Register
Go to the top of the page
  Insert nick Quick quote
+Quote Post

Reply to this topicStart new topic
2 User(s) are reading this topic (2 Guests and 0 Anonymous Users)
0 Members:

 



- Lo-Fi Version Support form
Copyrights and abuse reports form
Time is now: 3rd August 2020 - 09:51:19